<?xml version="1.0" standalone="no"?>
<!DOCTYPE svg PUBLIC "-//W3C//DTD SVG 1.1//EN" "http://www.w3.org/Graphics/SVG/1.1/DTD/svg11.dtd" >
<svg>
<metadata>
Created by FontForge 20090622 at Thu Oct 26 20:29:48 2017
 By deploy user
Copyright (c) 2017 by Tarek Atrissi Design. All rights reserved.
</metadata>
<defs>
<font id="OoredooArabic-Heavy" horiz-adv-x="0" >
  <font-face 
    font-family="OoredooArabic-Heavy"
    font-weight="900"
    font-stretch="normal"
    units-per-em="1000"
    panose-1="1 0 5 0 0 0 0 2 0 6"
    ascent="800"
    descent="-200"
    bbox="-126 -489 1462 1186"
    underline-thickness="29"
    underline-position="-479"
    unicode-range="U+0020-U+FEFC"
  />
<missing-glyph horiz-adv-x="500" 
d="M50 0v567h390v-567h-390zM139 85h213v397h-213v-397z" />
    <glyph glyph-name="shaddehdamatan" unicode="&#x651;&#x64c;" arabic-form="isolated" 
d="M277 872q0 -50 -24 -69.5t-58 -19.5q-37 0 -56 24q-20 -23 -56 -23q-34 0 -58 19.5t-24 68.5v41q0 11 8 18.5t19 7.5t19 -7.5t8 -18.5v-37q0 -14 4 -27t24 -13q17 0 23 13t6 27v37q0 11 8 18.5t19 7.5t19 -7.5t8 -18.5v-37q0 -14 4.5 -27t24.5 -13q17 0 22.5 13t5.5 27
v37q0 11 8 18.5t19 7.5t19 -7.5t8 -18.5v-41zM24 1018q-6 16 -12 16q-4 0 -10.5 -3t-13.5 -3q-12 0 -20 8.5t-8 21.5q0 8 4 15.5t20 13.5l22 8t20 5q13 0 21.5 -10t16.5 -29l4 -10q6 -16 15 -19.5t17 -0.5l21 7q-21 26 -21 58q0 38 26 64t64 26t64 -26t26 -64q0 -30 -17 -53
t-43 -32l-116 -40q-23 -8 -43.5 -2t-27.5 25zM190 1059q16 0 26.5 10.5t10.5 26.5q0 14 -10.5 24.5t-26.5 10.5t-25.5 -10.5t-9.5 -24.5q0 -16 9.5 -26.5t25.5 -10.5z" />
    <glyph glyph-name="shaddehkasratan" unicode="&#x651;&#x64d;" arabic-form="isolated" 
d="M299 1078q0 -50 -24 -69.5t-58 -19.5q-37 0 -56 24q-20 -23 -56 -23q-34 0 -58 19.5t-24 68.5v41q0 11 8 18.5t19 7.5t19 -7.5t8 -18.5v-37q0 -14 4 -27t24 -13q17 0 23 13t6 27v37q0 11 8 18.5t19 7.5t19 -7.5t8 -18.5v-37q0 -14 4.5 -27t24.5 -13q17 0 22.5 13t5.5 27
v37q0 11 8 18.5t19 7.5t19 -7.5t8 -18.5v-41zM94 750q-12 -5 -24 1t-17 19q-5 12 0.5 23t18.5 16l163 60q12 5 24 -0.5t17 -18.5q4 -12 -1.5 -23.5t-17.5 -15.5zM94 845q-12 -5 -24 1t-17 19q-5 12 0.5 23t18.5 16l163 60q12 5 24 -0.5t17 -18.5q4 -12 -1.5 -23.5
t-17.5 -15.5z" />
    <glyph glyph-name="shaddehfatha" unicode="&#x64e;&#x651;" arabic-form="isolated" 
d="M277 872q0 -50 -24 -69.5t-58 -19.5q-37 0 -56 24q-20 -23 -56 -23q-34 0 -58 19.5t-24 68.5v41q0 11 8 18.5t19 7.5t19 -7.5t8 -18.5v-37q0 -14 4 -27t24 -13q17 0 23 13t6 27v37q0 11 8 18.5t19 7.5t19 -7.5t8 -18.5v-37q0 -14 4.5 -27t24.5 -13q17 0 22.5 13t5.5 27
v37q0 11 8 18.5t19 7.5t19 -7.5t8 -18.5v-41zM67 969q-12 -5 -24 1t-17 19q-5 12 0.5 23t18.5 16l163 60q12 5 24 -0.5t17 -18.5q4 -12 -1.5 -23.5t-17.5 -15.5z" />
    <glyph glyph-name="shaddehdamma" unicode="&#x64f;&#x651;" arabic-form="isolated" 
d="M277 872q0 -50 -24 -69.5t-58 -19.5q-37 0 -56 24q-20 -23 -56 -23q-34 0 -58 19.5t-24 68.5v41q0 11 8 18.5t19 7.5t19 -7.5t8 -18.5v-37q0 -14 4 -27t24 -13q17 0 23 13t6 27v37q0 11 8 18.5t19 7.5t19 -7.5t8 -18.5v-37q0 -14 4.5 -27t24.5 -13q17 0 22.5 13t5.5 27
v37q0 11 8 18.5t19 7.5t19 -7.5t8 -18.5v-41zM248 1087q0 -32 -18.5 -55.5t-46.5 -31.5l-119 -41q-3 -1 -7 -1q-14 0 -23 8t-9 21q0 20 20 27l44 15q-21 26 -21 58q0 38 26 64t64 26t64 -26t26 -64zM158 1050q16 0 26.5 10.5t10.5 26.5q0 14 -10.5 24.5t-26.5 10.5
t-25.5 -10.5t-9.5 -24.5q0 -16 9.5 -26.5t25.5 -10.5z" />
    <glyph glyph-name="lammeeminitial" unicode="&#xfedf;&#xfee4;" horiz-adv-x="1123" arabic-form="initial" 
d="M378 -85q-68 0 -124 32.5t-88 86.5q-23 -17 -50 -25.5t-65 -8.5h-51l-20 20v99l20 20h48q16 0 31 2t26.5 7t18.5 13t7 20q0 45 20 86t54 72.5t79 50.5t94 19q48 0 92.5 -18.5t78.5 -50t54 -72.5t20 -87q0 -12 7 -20t18.5 -13t26.5 -7t31 -2h48l20 -20v-99l-20 -20h-51
q-38 0 -65.5 8.5t-49.5 25.5q-33 -54 -88.5 -86.5t-121.5 -32.5zM377 54q21 0 40 9t33.5 24t22.5 34.5t8 40.5t-8 40.5t-22.5 34.5t-33.5 24t-40 9t-40 -9t-33.5 -24t-22.5 -34.5t-8 -40.5t8 -40.5t22.5 -34.5t33.5 -24t40 -9zM1043 207q0 -59 -25 -99t-62 -64t-78 -34
t-73 -10h-51l-20 21v98l20 20h55q50 0 70.5 22.5t20.5 73.5v448q0 29 21 50t51 21q29 0 50 -21t21 -50v-476z" />
    <glyph glyph-name="aleffathatanfina" unicode="&#xfe8e;&#x64b;" horiz-adv-x="355" arabic-form="final" 
d="M65 684q0 29 21 50t50 21q30 0 51 -21t21 -50v-449q0 -51 20.5 -73.5t70.5 -22.5h56l20 -20v-98l-20 -21h-52q-32 0 -73 10t-78 34t-62 64t-25 99v477v0zM67 777q-12 -5 -24 1t-17 19q-5 12 0.5 23t18.5 16l163 60q12 5 24 -0.5t17 -18.5q4 -12 -1.5 -23.5t-17.5 -15.5z
M27 876q-12 -5 -24 1t-17 19q-5 12 0.5 23t18.5 16l163 60q12 5 24 -0.5t17 -18.5q4 -12 -1.5 -23.5t-17.5 -15.5z" />
    <glyph glyph-name="aleffathataniso" unicode="&#x627;&#x64b;" horiz-adv-x="304" arabic-form="isolated" 
d="M81 684q0 29 21 50t51 21q29 0 50 -21t21 -50v-656q0 -28 -28 -28h-87q-28 0 -28 28v656zM91 790q-12 -5 -24 1t-17 19q-5 12 0.5 23t18.5 16l163 60q12 5 24 -0.5t17 -18.5q4 -12 -1.5 -23.5t-17.5 -15.5zM51 889q-12 -5 -24 1t-17 19q-5 12 0.5 23t18.5 16l163 60
q12 5 24 -0.5t17 -18.5q4 -12 -1.5 -23.5t-17.5 -15.5z" />
    <glyph glyph-name="lilah" unicode="&#xfedf;&#xfee0;&#x651;&#x670;&#xfeea;" horiz-adv-x="1482" arabic-form="isolated" 
d="M390 82h-103q-54 0 -99.5 18.5t-78.5 50.5t-51.5 76.5t-18.5 95.5t19.5 95.5t53 78t79 53t96.5 19.5t95.5 -19.5t78 -53t53 -78t19.5 -95.5v-102v-139h-143zM390 221v101q0 21 -8 40.5t-22.5 34.5t-33.5 24t-40 9t-40.5 -9t-33.5 -24t-22.5 -34.5t-8.5 -40.5
q0 -43 29 -72t76 -29h104zM679 0h-51q-32 0 -73 10t-78 34t-62 64t-25 99v87l143 -7v-52q0 -51 20.5 -73.5t70.5 -22.5h55l20 -20v-98zM1132 119v-99l-20 -20q-74 0 -132.5 21.5t-84.5 73.5q-17 -30 -38 -48.5t-47.5 -29t-59 -14t-72.5 -3.5l-20 20v99l20 20q30 0 56 6.5
t46 21.5t31.5 39t11.5 59v418q0 29 21 50t51 21q29 0 50 -21t21 -50v-418q0 -35 11.5 -59t31.5 -39t46.5 -21.5t56.5 -6.5zM1402 207q0 -59 -25 -99t-62 -64t-78 -34t-73 -10h-51l-20 21v98l20 20h55q50 0 70.5 22.5t20.5 73.5v448q0 29 21 50t51 21q29 0 50 -21t21 -50
v-476zM1036 897q0 -50 -24 -69.5t-58 -19.5q-37 0 -56 24q-20 -23 -56 -23q-34 0 -58 19.5t-24 68.5v41q0 11 8 18.5t19 7.5t19 -7.5t8 -18.5v-37q0 -14 4 -27t24 -13q17 0 23 13t6 27v37q0 11 8 18.5t19 7.5t19 -7.5t8 -18.5v-37q0 -14 4.5 -27t24.5 -13q17 0 22.5 13
t5.5 27v37q0 11 8 18.5t19 7.5t19 -7.5t8 -18.5v-41z" />
    <glyph glyph-name="lamalefmaddaaboveiso" unicode="&#xfedf;&#xfe82;" horiz-adv-x="727" arabic-form="isolated" 
d="M99 0q-29 0 -49 20t-20 49t20 49.5t49 20.5h129v345q0 29 21 50t51 21q29 0 50 -21t21 -50v-345h42q50 0 70.5 22.5t20.5 73.5v449q0 29 21.5 50t51.5 21q29 0 49.5 -21t20.5 -50v-477q0 -59 -25 -99t-62 -64t-78 -34t-73 -10h-310v0zM450 594q0 -13 -8.5 -21.5
t-21.5 -8.5t-22 9t-9 23q0 20 -7.5 27t-20.5 7q-14 0 -30 -7.5l-34 -16t-38 -16t-42 -7.5q-41 0 -64.5 25t-23.5 63v8q0 14 8.5 22.5t21.5 8.5t22 -8.5t9 -22.5q0 -35 25 -35q13 0 30 7.5l36.5 16t40.5 16t42 7.5q35 0 60.5 -23.5t25.5 -64.5v-9v0z" />
    <glyph glyph-name="lamalefmaddaabovefina" unicode="&#xfee0;&#xfe82;" horiz-adv-x="794" arabic-form="final" 
d="M814 20l-20 -20q-85 0 -139 22t-79 73q-29 -53 -80.5 -74t-136.5 -21h-260q-29 0 -49 20t-20 49t20 49.5t49 20.5h129v345q0 29 21 50t51 21q29 0 50 -21t21 -50v-345h57q76 0 76 73v472q0 29 21 50t51 21q29 0 50 -21t21 -50v-451q0 -43 26 -68.5t84 -25.5h37l20 -20
v-99zM450 594q0 -13 -8.5 -21.5t-21.5 -8.5t-22 9t-9 23q0 20 -7.5 27t-20.5 7q-14 0 -30 -7.5l-34 -16t-38 -16t-42 -7.5q-41 0 -64.5 25t-23.5 63v8q0 14 8.5 22.5t21.5 8.5t22 -8.5t9 -22.5q0 -35 25 -35q13 0 30 7.5l36.5 16t40.5 16t42 7.5q35 0 60.5 -23.5t25.5 -64.5
v-9v0z" />
    <glyph glyph-name="lamalefhamzaaboveiso" unicode="&#xfedf;&#xfe84;" horiz-adv-x="727" arabic-form="isolated" 
d="M99 0q-29 0 -49 20t-20 49t20 49.5t49 20.5h129v345q0 29 21 50t51 21q29 0 50 -21t21 -50v-345h42q50 0 70.5 22.5t20.5 73.5v449q0 29 21.5 50t51.5 21q29 0 49.5 -21t20.5 -50v-477q0 -59 -25 -99t-62 -64t-78 -34t-73 -10h-310v0zM343 738q-17 12 -36 12
q-17 0 -28 -11t-11 -28t11 -28.5t28 -11.5h54q16 0 24 -10t8 -20q0 -12 -8 -21.5t-24 -9.5h-158q-14 0 -22.5 9.5t-8.5 21.5q0 10 8.5 20t22.5 10h17q-9 11 -11 23t-2 20q0 41 28.5 68t70.5 27q20 0 39 -7t33 -21q10 -10 10 -21q0 -14 -9 -21t-20 -7q-9 0 -16 6z" />
    <glyph glyph-name="lamalefhamzaabovefina" unicode="&#xfee0;&#xfe84;" horiz-adv-x="794" arabic-form="final" 
d="M814 20l-20 -20q-85 0 -139 22t-79 73q-29 -53 -80.5 -74t-136.5 -21h-260q-29 0 -49 20t-20 49t20 49.5t49 20.5h129v345q0 29 21 50t51 21q29 0 50 -21t21 -50v-345h57q76 0 76 73v472q0 29 21 50t51 21q29 0 50 -21t21 -50v-451q0 -43 26 -68.5t84 -25.5h37l20 -20
v-99zM343 738q-17 12 -36 12q-17 0 -28 -11t-11 -28t11 -28.5t28 -11.5h54q16 0 24 -10t8 -20q0 -12 -8 -21.5t-24 -9.5h-158q-14 0 -22.5 9.5t-8.5 21.5q0 10 8.5 20t22.5 10h17q-9 11 -11 23t-2 20q0 41 28.5 68t70.5 27q20 0 39 -7t33 -21q10 -10 10 -21q0 -14 -9 -21
t-20 -7q-9 0 -16 6z" />
    <glyph glyph-name="lamalefhamzabelowiso" unicode="&#xfedf;&#xfe88;" horiz-adv-x="727" arabic-form="isolated" 
d="M99 0q-29 0 -49 20t-20 49t20 49.5t49 20.5h129v345q0 29 21 50t51 21q29 0 50 -21t21 -50v-345h42q50 0 70.5 22.5t20.5 73.5v449q0 29 21.5 50t51.5 21q29 0 49.5 -21t20.5 -50v-477q0 -59 -25 -99t-62 -64t-78 -34t-73 -10h-310v0zM345 -112q-17 12 -36 12
q-17 0 -28 -11t-11 -28t11 -28.5t28 -11.5h54q16 0 24 -10t8 -20q0 -12 -8 -21.5t-24 -9.5h-158q-14 0 -22.5 9.5t-8.5 21.5q0 10 8.5 20t22.5 10h17q-9 11 -11 23t-2 20q0 41 28.5 68t70.5 27q20 0 39 -7t33 -21q10 -10 10 -21q0 -14 -9 -21t-20 -7q-9 0 -16 6z" />
    <glyph glyph-name="lamalefhamzabelowfina" unicode="&#xfee0;&#xfe88;" horiz-adv-x="794" arabic-form="final" 
d="M814 20l-20 -20q-85 0 -139 22t-79 73q-29 -53 -80.5 -74t-136.5 -21h-260q-29 0 -49 20t-20 49t20 49.5t49 20.5h129v345q0 29 21 50t51 21q29 0 50 -21t21 -50v-345h57q76 0 76 73v472q0 29 21 50t51 21q29 0 50 -21t21 -50v-451q0 -43 26 -68.5t84 -25.5h37l20 -20
v-99zM347 -112q-17 12 -36 12q-17 0 -28 -11t-11 -28t11 -28.5t28 -11.5h54q16 0 24 -10t8 -20q0 -12 -8 -21.5t-24 -9.5h-158q-14 0 -22.5 9.5t-8.5 21.5q0 10 8.5 20t22.5 10h17q-9 11 -11 23t-2 20q0 41 28.5 68t70.5 27q20 0 39 -7t33 -21q10 -10 10 -21q0 -14 -9 -21
t-20 -7q-9 0 -16 6z" />
    <glyph glyph-name="lamalefiso" unicode="&#xfedf;&#xfe8e;" horiz-adv-x="727" arabic-form="isolated" 
d="M99 0q-29 0 -49 20t-20 49t20 49.5t49 20.5h129v345q0 29 21 50t51 21q29 0 50 -21t21 -50v-345h42q50 0 70.5 22.5t20.5 73.5v449q0 29 21.5 50t51.5 21q29 0 49.5 -21t20.5 -50v-477q0 -59 -25 -99t-62 -64t-78 -34t-73 -10h-310v0z" />
    <glyph glyph-name="lamaleffina" unicode="&#xfee0;&#xfe8e;" horiz-adv-x="794" arabic-form="final" 
d="M814 20l-20 -20q-85 0 -139 22t-79 73q-29 -53 -80.5 -74t-136.5 -21h-260q-29 0 -49 20t-20 49t20 49.5t49 20.5h129v345q0 29 21 50t51 21q29 0 50 -21t21 -50v-345h57q76 0 76 73v472q0 29 21 50t51 21q29 0 50 -21t21 -50v-451q0 -43 26 -68.5t84 -25.5h37l20 -20
v-99z" />
    <glyph glyph-name="shaddahfathatan" unicode="&#x651;&#x64b;" 
d="M277 872q0 -50 -24 -69.5t-58 -19.5q-37 0 -56 24q-20 -23 -56 -23q-34 0 -58 19.5t-24 68.5v41q0 11 8 18.5t19 7.5t19 -7.5t8 -18.5v-37q0 -14 4 -27t24 -13q17 0 23 13t6 27v37q0 11 8 18.5t19 7.5t19 -7.5t8 -18.5v-37q0 -14 4.5 -27t24.5 -13q17 0 22.5 13t5.5 27
v37q0 11 8 18.5t19 7.5t19 -7.5t8 -18.5v-41zM69 967q-12 -5 -24 1t-17 19q-5 12 0.5 23t18.5 16l163 60q12 5 24 -0.5t17 -18.5q4 -12 -1.5 -23.5t-17.5 -15.5zM69 1062q-12 -5 -24 1t-17 19q-5 12 0.5 23t18.5 16l163 60q12 5 24 -0.5t17 -18.5q4 -12 -1.5 -23.5
t-17.5 -15.5z" />
    <glyph glyph-name="yajeemliga" unicode="&#xfbfe;&#xfe9e;" horiz-adv-x="1150" 
d="M644 242q0 -31 4.5 -51.5t10.5 -28.5q17 -23 73 -23h59l20 -20v-99l-20 -20h-79q-64 0 -102.5 18t-58.5 53h-191q-49 0 -83.5 -28.5t-34.5 -77.5q0 -23 8.5 -44.5t25 -37.5t40 -25.5t52.5 -9.5q45 0 73 10.5t48 30.5q9 9 21 15t25 6q29 0 48.5 -20t19.5 -46
q0 -17 -5.5 -28.5t-13.5 -19.5q-10 -11 -28 -26t-44 -28.5t-60 -23t-75 -9.5q-63 0 -114 19.5t-88 53t-57 80t-20 100.5t19.5 99.5t52 78t73.5 50.5t85 17h173v105q0 21 -8 40t-21.5 33t-32.5 22t-41 8q-39 0 -61.5 -7.5t-37.5 -16.5q-9 -5 -19 -10t-22 -5q-31 0 -49.5 20.5
t-18.5 46.5q0 14 5.5 27t15.5 22q35 32 77.5 47t99.5 15t104.5 -19t81 -52t52 -77t18.5 -94v-70zM770 21v98l20 20h55q50 0 70.5 22.5t20.5 73.5v122q0 29 21.5 50t51.5 21q29 0 49.5 -21t20.5 -50v-150q0 -59 -25 -99t-62 -64t-78 -34t-73 -10h-51zM693 -166q0 16 6.5 31
t18 26.5t26 18t31.5 6.5q16 0 31 -6.5t26.5 -18t18 -26.5t6.5 -31q0 -33 -24.5 -57.5t-57.5 -24.5q-17 0 -31.5 6.5t-26 18t-18 26t-6.5 31.5zM890 -166q0 16 6.5 31t18 26.5t26 18t31.5 6.5q16 0 31 -6.5t26.5 -18t18 -26.5t6.5 -31q0 -17 -6.5 -31.5t-18 -26t-26.5 -18
t-31 -6.5q-17 0 -31.5 6.5t-26 18t-18 26t-6.5 31.5zM270.416 93.3301q0 12.1953 4.9541 23.6289t13.7197 20.1982q8.76562 8.76562 19.8174 13.7197q11.0518 4.95508 24.0098 4.95508q12.1953 0 23.6279 -4.95508q11.4336 -4.9541 20.1992 -13.7197
q8.76562 -8.76465 13.7197 -20.1982t4.9541 -23.6289q0 -12.957 -4.9541 -24.0088t-13.7197 -19.8174t-20.1992 -13.7197q-11.4326 -4.9541 -23.6279 -4.9541q-12.958 0 -24.0098 4.9541t-19.8174 13.7197t-13.7197 19.8174t-4.9541 24.0088z" />
    <glyph glyph-name="hamza" unicode="&#x621;" horiz-adv-x="566" arabic-form="isolated" 
d="M139 139q-8 14 -13 34t-5 49q0 45 16 84t44.5 67t68 44t87.5 16q31 0 56 -6.5t43.5 -15t31.5 -17.5t19 -15q10 -9 16 -21.5t6 -26.5q0 -29 -19.5 -48t-45.5 -19q-21 0 -37 11q-26 19 -62 19q-32 0 -56.5 -21.5t-24.5 -54.5q0 -32 22.5 -55.5t54.5 -23.5h106
q29 0 49 -20.5t20 -49.5t-20 -49t-49 -20h-333q-29 0 -49 20t-20 49t20 49.5t49 20.5h25z" />
    <glyph glyph-name="alefmaddaaboveiso" unicode="&#x622;" horiz-adv-x="304" arabic-form="isolated" 
d="M81 684q0 29 21 50t51 21q29 0 50 -21t21 -50v-656q0 -28 -28 -28h-87q-28 0 -28 28v656zM309 790q0 -13 -8.5 -21.5t-21.5 -8.5t-22 9t-9 23q0 20 -7.5 27t-20.5 7q-14 0 -30 -7.5l-34 -16t-38 -16t-42 -7.5q-41 0 -64.5 25t-23.5 63v8q0 14 8.5 22.5t21.5 8.5t22 -8.5
t9 -22.5q0 -35 25 -35q13 0 30 7.5l36.5 16t40.5 16t42 7.5q35 0 60.5 -23.5t25.5 -64.5v-9v0z" />
    <glyph glyph-name="alefhamzaaboveiso" unicode="&#x623;" horiz-adv-x="304" arabic-form="isolated" 
d="M81 684q0 29 21 50t51 21q29 0 50 -21t21 -50v-656q0 -28 -28 -28h-87q-28 0 -28 28v656zM204 921q-17 12 -36 12q-17 0 -28 -11t-11 -28t11 -28.5t28 -11.5h54q16 0 24 -10t8 -20q0 -12 -8 -21.5t-24 -9.5h-158q-14 0 -22.5 9.5t-8.5 21.5q0 10 8.5 20t22.5 10h17
q-9 11 -11 23t-2 20q0 41 28.5 68t70.5 27q20 0 39 -7t33 -21q10 -10 10 -21q0 -14 -9 -21t-20 -7q-9 0 -16 6z" />
    <glyph glyph-name="wawhamzaiso" unicode="&#x624;" horiz-adv-x="575" arabic-form="isolated" 
d="M165 -250q-29 0 -50 21t-21 50q0 30 21 49t50 19h112q21 0 40 8t33.5 22.5t22.5 33.5t8 41v6h-103q-54 0 -99.5 18.5t-78.5 50.5t-51.5 76.5t-18.5 95.5t19.5 95.5t53 78t79 53t96.5 19.5t95.5 -19.5t78 -53t53 -78t19.5 -95.5v-247q0 -51 -19.5 -95.5t-53 -77.5t-78 -52
t-95.5 -19h-113zM381 139v101q0 21 -8 40t-22.5 33.5t-33.5 22.5t-40 8t-40 -8t-33.5 -22.5t-22.5 -33.5t-8 -40q0 -43 28.5 -72t75.5 -29h104zM371.994 586.431q-21.2305 15.0146 -44.959 15.0146q-21.2305 0 -34.9668 -13.7637q-13.7373 -13.7637 -13.7373 -35.0361
q0 -21.2715 13.7373 -35.6611q13.7363 -14.3896 34.9668 -14.3896h67.4375q19.9814 0 29.9727 -12.5127q9.99023 -12.5127 9.99023 -25.0254q0 -15.0156 -9.99023 -26.9033q-9.99121 -11.8867 -29.9727 -11.8867h-197.316q-17.4844 0 -28.0986 11.8867
q-10.6152 11.8877 -10.6152 26.9033q0 12.5127 10.6152 25.0254q10.6143 12.5127 28.0986 12.5127h21.2305q-11.2402 13.7637 -13.7373 28.7793q-2.49805 15.0156 -2.49805 25.0254q0 51.3027 35.5918 85.0869q35.5918 33.7852 88.0439 33.7852q24.9766 0 48.7041 -8.75879
q23.7285 -8.75879 41.2119 -26.2773q12.4883 -12.5127 12.4883 -26.2764q0 -17.5186 -11.2393 -26.2773t-24.9766 -8.75879q-11.2402 0 -19.9814 7.50781z" />
    <glyph glyph-name="alefhamzabelowiso" unicode="&#x625;" horiz-adv-x="304" arabic-form="isolated" 
d="M81 684q0 29 21 50t51 21q29 0 50 -21t21 -50v-656q0 -28 -28 -28h-87q-28 0 -28 28v656zM205 -112q-17 12 -36 12q-17 0 -28 -11t-11 -28t11 -28.5t28 -11.5h54q16 0 24 -10t8 -20q0 -12 -8 -21.5t-24 -9.5h-158q-14 0 -22.5 9.5t-8.5 21.5q0 10 8.5 20t22.5 10h17
q-9 11 -11 23t-2 20q0 41 28.5 68t70.5 27q20 0 39 -7t33 -21q10 -10 10 -21q0 -14 -9 -21t-20 -7q-9 0 -16 6z" />
    <glyph glyph-name="hamzakirsehiso" unicode="&#x626;" horiz-adv-x="937" arabic-form="isolated" 
d="M168 133q0 -29 7.5 -54.5t26 -44t49.5 -29.5t78 -11h236q77 0 77 35q0 7 -3.5 15.5t-8.5 19.5l-68 141q-9 17 -12.5 33.5t-3.5 30.5q0 28 10.5 56t33 51t57 37.5t81.5 14.5q54 0 101 -27t77 -65q8 -10 12 -20t4 -22q0 -13 -6 -25.5t-15.5 -22t-22.5 -15t-26 -5.5
q-21 0 -33 9t-22 20q-11 14 -22.5 23.5t-36.5 9.5q-21 0 -33 -12t-12 -26q0 -8 3.5 -18.5t9 -22l11 -23t10.5 -20.5l37 -72q13 -24 20.5 -48.5t7.5 -47.5q0 -35 -18 -61.5t-47 -44.5t-66.5 -27.5t-77.5 -9.5h-256q-84 0 -142 26.5t-93.5 67t-51 89.5t-15.5 95v79q0 29 21 50
t51 21q29 0 50 -21t21 -50v-79v0zM275.994 316.431q-21.2305 15.0146 -44.959 15.0146q-21.2305 0 -34.9668 -13.7637q-13.7373 -13.7637 -13.7373 -35.0361q0 -21.2715 13.7373 -35.6611q13.7363 -14.3896 34.9668 -14.3896h67.4375q19.9814 0 29.9727 -12.5127
q9.99023 -12.5127 9.99023 -25.0254q0 -15.0156 -9.99023 -26.9033q-9.99121 -11.8867 -29.9727 -11.8867h-197.316q-17.4844 0 -28.0986 11.8867q-10.6152 11.8877 -10.6152 26.9033q0 12.5127 10.6152 25.0254q10.6143 12.5127 28.0986 12.5127h21.2305
q-11.2402 13.7637 -13.7373 28.7793q-2.49805 15.0156 -2.49805 25.0254q0 51.3027 35.5918 85.0869q35.5918 33.7852 88.0439 33.7852q24.9766 0 48.7041 -8.75879q23.7285 -8.75879 41.2119 -26.2773q12.4883 -12.5127 12.4883 -26.2764q0 -17.5186 -11.2393 -26.2773
t-24.9766 -8.75879q-11.2402 0 -19.9814 7.50781z" />
    <glyph glyph-name="alefiso" unicode="&#x627;" horiz-adv-x="304" arabic-form="isolated" 
d="M81 684q0 29 21 50t51 21q29 0 50 -21t21 -50v-656q0 -28 -28 -28h-87q-28 0 -28 28v656z" />
    <glyph glyph-name="behiso" unicode="&#x628;" horiz-adv-x="941" arabic-form="isolated" 
d="M183 297q0 -43 8.5 -73t27 -49t49.5 -27.5t76 -8.5h256q87 0 122.5 38t35.5 115v65q0 29 21 50t51 21q29 0 50 -21t21 -50v-59q0 -69 -18.5 -124.5t-56 -94t-94.5 -59t-134 -20.5h-256q-77 0 -133.5 20.5t-94 59t-56 92.5t-18.5 120v65q0 29 21 50t51 21q29 0 50 -21
t21 -50v-60zM421 -165q0 16 6.5 31t18 26.5t26 18t31.5 6.5q16 0 31 -6.5t26.5 -18t18 -26.5t6.5 -31q0 -17 -6.5 -31.5t-18 -26t-26.5 -18t-31 -6.5q-17 0 -31.5 6.5t-26 18t-18 26t-6.5 31.5z" />
    <glyph glyph-name="tehmarboutaiso" unicode="&#x629;" horiz-adv-x="572" arabic-form="isolated" 
d="M293 -7q-51 0 -96.5 19.5t-79 53t-53 79t-19.5 96.5t19.5 95.5t53 78t79 53t96.5 19.5t95.5 -19.5t78 -53t53 -78t19.5 -95.5t-19.5 -96.5t-53 -79t-78 -53t-95.5 -19.5zM292 132q21 0 40 9t33.5 24t22.5 34.5t8 40.5t-8 40.5t-22.5 34.5t-33.5 24t-40 9t-40 -9
t-33.5 -24t-22.5 -34.5t-8 -40.5t8 -40.5t22.5 -34.5t33.5 -24t40 -9zM105 621q0 16 6.5 31t18 26.5t26 18t31.5 6.5q16 0 31 -6.5t26.5 -18t18 -26.5t6.5 -31q0 -33 -24.5 -57.5t-57.5 -24.5q-17 0 -31.5 6.5t-26 18t-18 26t-6.5 31.5zM302 621q0 16 6.5 31t18 26.5t26 18
t31.5 6.5q16 0 31 -6.5t26.5 -18t18 -26.5t6.5 -31q0 -17 -6.5 -31.5t-18 -26t-26.5 -18t-31 -6.5q-17 0 -31.5 6.5t-26 18t-18 26t-6.5 31.5z" />
    <glyph glyph-name="taiso" unicode="&#x62a;" horiz-adv-x="941" arabic-form="isolated" 
d="M183 297q0 -43 8.5 -73t27 -49t49.5 -27.5t76 -8.5h256q87 0 122.5 38t35.5 115v65q0 29 21 50t51 21q29 0 50 -21t21 -50v-59q0 -69 -18.5 -124.5t-56 -94t-94.5 -59t-134 -20.5h-256q-77 0 -133.5 20.5t-94 59t-56 92.5t-18.5 120v65q0 29 21 50t51 21q29 0 50 -21
t21 -50v-60zM293 621q0 16 6.5 31t18 26.5t26 18t31.5 6.5q16 0 31 -6.5t26.5 -18t18 -26.5t6.5 -31q0 -33 -24.5 -57.5t-57.5 -24.5q-17 0 -31.5 6.5t-26 18t-18 26t-6.5 31.5zM490 621q0 16 6.5 31t18 26.5t26 18t31.5 6.5q16 0 31 -6.5t26.5 -18t18 -26.5t6.5 -31
q0 -17 -6.5 -31.5t-18 -26t-26.5 -18t-31 -6.5q-17 0 -31.5 6.5t-26 18t-18 26t-6.5 31.5z" />
    <glyph glyph-name="thaiso" unicode="&#x62b;" horiz-adv-x="941" arabic-form="isolated" 
d="M183 297q0 -43 8.5 -73t27 -49t49.5 -27.5t76 -8.5h256q87 0 122.5 38t35.5 115v65q0 29 21 50t51 21q29 0 50 -21t21 -50v-59q0 -69 -18.5 -124.5t-56 -94t-94.5 -59t-134 -20.5h-256q-77 0 -133.5 20.5t-94 59t-56 92.5t-18.5 120v65q0 29 21 50t51 21q29 0 50 -21
t21 -50v-60zM381 782q0 16 6.5 31t18 26.5t26 18t31.5 6.5q16 0 31 -6.5t26.5 -18t18 -26.5t6.5 -31q0 -17 -6.5 -31.5t-18 -26t-26.5 -18t-31 -6.5q-17 0 -31.5 6.5t-26 18t-18 26t-6.5 31.5zM283 620q0 16 6.5 31t18 26.5t26 18t31.5 6.5q16 0 31 -6.5t26.5 -18t18 -26.5
t6.5 -31q0 -17 -6.5 -31.5t-18 -26t-26.5 -18t-31 -6.5q-17 0 -31.5 6.5t-26 18t-18 26t-6.5 31.5zM480 620q0 16 6.5 31t18 26.5t26 18t31.5 6.5q16 0 31 -6.5t26.5 -18t18 -26.5t6.5 -31q0 -17 -6.5 -31.5t-18 -26t-26.5 -18t-31 -6.5q-17 0 -31.5 6.5t-26 18t-18 26
t-6.5 31.5z" />
    <glyph glyph-name="jeemiso" unicode="&#x62c;" horiz-adv-x="627" arabic-form="isolated" 
d="M587 71h-284q-49 0 -83.5 -28.5t-34.5 -77.5q0 -23 8.5 -44.5t25 -37.5t40 -25.5t52.5 -9.5q45 0 73 10.5t48 30.5q9 9 21 15t25 6q29 0 48.5 -20t19.5 -46q0 -17 -5.5 -28.5t-13.5 -19.5q-10 -11 -28 -26t-44 -28.5t-60 -23t-75 -9.5q-63 0 -114 19.5t-88 53t-57 80
t-20 100.5t19.5 99.5t52 78t73.5 50.5t85 17h173v105q0 21 -8 40t-21.5 33t-32.5 22t-41 8q-39 0 -61.5 -7.5t-37.5 -16.5q-9 -5 -19 -10t-22 -5q-31 0 -49.5 20.5t-18.5 46.5q0 14 5.5 27t15.5 22q35 32 77.5 47t99.5 15t104.5 -19t81 -52t52 -77t18.5 -94v-241z
M226.416 91.3301q0 12.1953 4.9541 23.6289t13.7197 20.1982q8.76562 8.76562 19.8174 13.7197q11.0518 4.95508 24.0098 4.95508q12.1953 0 23.6279 -4.95508q11.4336 -4.9541 20.1992 -13.7197q8.76562 -8.76465 13.7197 -20.1982t4.9541 -23.6289
q0 -12.957 -4.9541 -24.0088t-13.7197 -19.8174t-20.1992 -13.7197q-11.4326 -4.9541 -23.6279 -4.9541q-12.958 0 -24.0098 4.9541t-19.8174 13.7197t-13.7197 19.8174t-4.9541 24.0088z" />
    <glyph glyph-name="haaiso" unicode="&#x62d;" horiz-adv-x="627" arabic-form="isolated" 
d="M587 71h-284q-49 0 -83.5 -28.5t-34.5 -77.5q0 -23 8.5 -44.5t25 -37.5t40 -25.5t52.5 -9.5q45 0 73 10.5t48 30.5q9 9 21 15t25 6q29 0 48.5 -20t19.5 -46q0 -17 -5.5 -28.5t-13.5 -19.5q-10 -11 -28 -26t-44 -28.5t-60 -23t-75 -9.5q-63 0 -114 19.5t-88 53t-57 80
t-20 100.5t19.5 99.5t52 78t73.5 50.5t85 17h173v105q0 21 -8 40t-21.5 33t-32.5 22t-41 8q-39 0 -61.5 -7.5t-37.5 -16.5q-9 -5 -19 -10t-22 -5q-31 0 -49.5 20.5t-18.5 46.5q0 14 5.5 27t15.5 22q35 32 77.5 47t99.5 15t104.5 -19t81 -52t52 -77t18.5 -94v-241z" />
    <glyph glyph-name="khaiso" unicode="&#x62e;" horiz-adv-x="627" arabic-form="isolated" 
d="M587 71h-284q-49 0 -83.5 -28.5t-34.5 -77.5q0 -23 8.5 -44.5t25 -37.5t40 -25.5t52.5 -9.5q45 0 73 10.5t48 30.5q9 9 21 15t25 6q29 0 48.5 -20t19.5 -46q0 -17 -5.5 -28.5t-13.5 -19.5q-10 -11 -28 -26t-44 -28.5t-60 -23t-75 -9.5q-63 0 -114 19.5t-88 53t-57 80
t-20 100.5t19.5 99.5t52 78t73.5 50.5t85 17h173v105q0 21 -8 40t-21.5 33t-32.5 22t-41 8q-39 0 -61.5 -7.5t-37.5 -16.5q-9 -5 -19 -10t-22 -5q-31 0 -49.5 20.5t-18.5 46.5q0 14 5.5 27t15.5 22q35 32 77.5 47t99.5 15t104.5 -19t81 -52t52 -77t18.5 -94v-241zM225 670
q0 16 6.5 31t18 26.5t26 18t31.5 6.5q16 0 31 -6.5t26.5 -18t18 -26.5t6.5 -31q0 -17 -6.5 -31.5t-18 -26t-26.5 -18t-31 -6.5q-17 0 -31.5 6.5t-26 18t-18 26t-6.5 31.5z" />
    <glyph glyph-name="daliso" unicode="&#x62f;" horiz-adv-x="549" arabic-form="isolated" 
d="M201 349q-29 0 -49 20t-20 49t20 49t49 20q62 0 116.5 -19t95 -54t63.5 -85t23 -112v-217h-390q-29 0 -49 20t-20 49t20 49.5t49 20.5h247v78q0 34 -12 59t-32.5 41t-49 24t-61.5 8z" />
    <glyph glyph-name="zaliso" unicode="&#x630;" horiz-adv-x="549" arabic-form="isolated" 
d="M201 349q-29 0 -49 20t-20 49t20 49t49 20q62 0 116.5 -19t95 -54t63.5 -85t23 -112v-217h-390q-29 0 -49 20t-20 49t20 49.5t49 20.5h247v78q0 34 -12 59t-32.5 41t-49 24t-61.5 8zM189 621q0 16 6.5 31t18 26.5t26 18t31.5 6.5q16 0 31 -6.5t26.5 -18t18 -26.5t6.5 -31
q0 -17 -6.5 -31.5t-18 -26t-26.5 -18t-31 -6.5q-17 0 -31.5 6.5t-26 18t-18 26t-6.5 31.5z" />
    <glyph glyph-name="raiso" unicode="&#x631;" horiz-adv-x="366" arabic-form="isolated" 
d="M163 357q0 29 21 50t51 21q29 0 50 -21t21 -50v-363q0 -51 -19.5 -95.5t-53 -77.5t-78 -52t-95.5 -19h-53q-29 0 -50 21t-21 50q0 30 21 49t50 19h52q21 0 40 8t33.5 22.5t22.5 33.5t8 41v363z" />
    <glyph glyph-name="zaiso" unicode="&#x632;" horiz-adv-x="366" arabic-form="isolated" 
d="M163 357q0 29 21 50t51 21q29 0 50 -21t21 -50v-363q0 -51 -19.5 -95.5t-53 -77.5t-78 -52t-95.5 -19h-53q-29 0 -50 21t-21 50q0 30 21 49t50 19h52q21 0 40 8t33.5 22.5t22.5 33.5t8 41v363zM140 621q0 16 6.5 31t18 26.5t26 18t31.5 6.5q16 0 31 -6.5t26.5 -18
t18 -26.5t6.5 -31q0 -17 -6.5 -31.5t-18 -26t-26.5 -18t-31 -6.5q-17 0 -31.5 6.5t-26 18t-18 26t-6.5 31.5z" />
    <glyph glyph-name="seeniso" unicode="&#x633;" horiz-adv-x="1336" arabic-form="isolated" 
d="M1296 236q0 -111 -59.5 -173.5t-171.5 -62.5q-49 0 -94.5 25.5t-68.5 70.5q-26 -45 -64 -70.5t-97 -25.5q-35 0 -62 10.5t-45 35.5q-5 -64 -25.5 -116t-56.5 -88.5t-88 -56t-119 -19.5q-73 0 -129 21.5t-94.5 61t-58.5 96t-20 126.5v177q0 29 21 50t51 21q29 0 50 -21
t21 -50v-174q0 -39 12 -70.5t33.5 -53.5t51 -34t64.5 -12q34 0 63 12t50 34t33 53.5t12 70.5v283q0 29 21 50t51 21q29 0 50 -21t21 -50v-122q0 -48 26 -72t64 -24t64.5 24t26.5 72v122q0 29 21 50t51 21q29 0 50 -21t21 -50v-122q0 -48 26.5 -72t64.5 -24t64 24t26 72v122
q0 29 21 50t51 21q29 0 50 -21t21 -50v-121z" />
    <glyph glyph-name="sheeniso" unicode="&#x634;" horiz-adv-x="1336" arabic-form="isolated" 
d="M1296 236q0 -111 -59.5 -173.5t-171.5 -62.5q-49 0 -94.5 25.5t-68.5 70.5q-26 -45 -64 -70.5t-97 -25.5q-35 0 -62 10.5t-45 35.5q-5 -64 -25.5 -116t-56.5 -88.5t-88 -56t-119 -19.5q-73 0 -129 21.5t-94.5 61t-58.5 96t-20 126.5v177q0 29 21 50t51 21q29 0 50 -21
t21 -50v-174q0 -39 12 -70.5t33.5 -53.5t51 -34t64.5 -12q34 0 63 12t50 34t33 53.5t12 70.5v283q0 29 21 50t51 21q29 0 50 -21t21 -50v-122q0 -48 26 -72t64 -24t64.5 24t26.5 72v122q0 29 21 50t51 21q29 0 50 -21t21 -50v-122q0 -48 26.5 -72t64.5 -24t64 24t26 72v122
q0 29 21 50t51 21q29 0 50 -21t21 -50v-121zM821 782q0 16 6.5 31t18 26.5t26 18t31.5 6.5q16 0 31 -6.5t26.5 -18t18 -26.5t6.5 -31q0 -17 -6.5 -31.5t-18 -26t-26.5 -18t-31 -6.5q-17 0 -31.5 6.5t-26 18t-18 26t-6.5 31.5zM723 620q0 16 6.5 31t18 26.5t26 18t31.5 6.5
q16 0 31 -6.5t26.5 -18t18 -26.5t6.5 -31q0 -17 -6.5 -31.5t-18 -26t-26.5 -18t-31 -6.5q-17 0 -31.5 6.5t-26 18t-18 26t-6.5 31.5zM920 620q0 16 6.5 31t18 26.5t26 18t31.5 6.5q16 0 31 -6.5t26.5 -18t18 -26.5t6.5 -31q0 -17 -6.5 -31.5t-18 -26t-26.5 -18t-31 -6.5
q-17 0 -31.5 6.5t-26 18t-18 26t-6.5 31.5z" />
    <glyph glyph-name="sadiso" unicode="&#x635;" horiz-adv-x="1251" arabic-form="isolated" 
d="M513 347q0 29 21 50t51 21q29 0 50 -21t21 -50v-43q12 21 37 52t61.5 60t85.5 50t109 21q69 0 118.5 -21t81.5 -55t47 -77t15 -87q0 -55 -21.5 -100.5t-58 -78t-84 -50.5t-98.5 -18h-312q-20 -109 -91.5 -171.5t-192.5 -62.5q-73 0 -129 21.5t-94.5 61t-58.5 96
t-20 126.5v177q0 29 21 50t51 21q29 0 50 -21t21 -50v-174q0 -39 12 -70.5t33.5 -53.5t51 -34t64.5 -12q34 0 63 12t50 34t33 53.5t12 70.5v273zM952 348q-68 0 -146 -52.5t-150 -156.5h247q85 0 125 31t40 81q0 25 -9.5 43.5t-25.5 30.5t-37 17.5t-44 5.5z" />
    <glyph glyph-name="dadiso" unicode="&#x636;" horiz-adv-x="1251" arabic-form="isolated" 
d="M513 347q0 29 21 50t51 21q29 0 50 -21t21 -50v-43q12 21 37 52t61.5 60t85.5 50t109 21q69 0 118.5 -21t81.5 -55t47 -77t15 -87q0 -55 -21.5 -100.5t-58 -78t-84 -50.5t-98.5 -18h-312q-20 -109 -91.5 -171.5t-192.5 -62.5q-73 0 -129 21.5t-94.5 61t-58.5 96
t-20 126.5v177q0 29 21 50t51 21q29 0 50 -21t21 -50v-174q0 -39 12 -70.5t33.5 -53.5t51 -34t64.5 -12q34 0 63 12t50 34t33 53.5t12 70.5v273zM952 348q-68 0 -146 -52.5t-150 -156.5h247q85 0 125 31t40 81q0 25 -9.5 43.5t-25.5 30.5t-37 17.5t-44 5.5zM819 621
q0 16 6.5 31t18 26.5t26 18t31.5 6.5q16 0 31 -6.5t26.5 -18t18 -26.5t6.5 -31q0 -17 -6.5 -31.5t-18 -26t-26.5 -18t-31 -6.5q-17 0 -31.5 6.5t-26 18t-18 26t-6.5 31.5z" />
    <glyph glyph-name="tahiso" unicode="&#x637;" horiz-adv-x="875" arabic-form="isolated" 
d="M109 0q-29 0 -49 20t-20 49t20 49.5t49 20.5h28v545q0 29 21 50t51 21q29 0 50 -21t21 -50v-380q12 21 37 52t61.5 60t85.5 50t109 21q69 0 118.5 -21t81.5 -55t47 -77t15 -87q0 -55 -21.5 -100.5t-58 -78t-84 -50.5t-98.5 -18h-464zM576 348q-68 0 -146 -52.5
t-150 -156.5h247q85 0 125 31t40 81q0 25 -9.5 43.5t-25.5 30.5t-37 17.5t-44 5.5z" />
    <glyph glyph-name="zadiso" unicode="&#x638;" horiz-adv-x="875" arabic-form="isolated" 
d="M109 0q-29 0 -49 20t-20 49t20 49.5t49 20.5h28v545q0 29 21 50t51 21q29 0 50 -21t21 -50v-380q12 21 37 52t61.5 60t85.5 50t109 21q69 0 118.5 -21t81.5 -55t47 -77t15 -87q0 -55 -21.5 -100.5t-58 -78t-84 -50.5t-98.5 -18h-464zM576 348q-68 0 -146 -52.5
t-150 -156.5h247q85 0 125 31t40 81q0 25 -9.5 43.5t-25.5 30.5t-37 17.5t-44 5.5zM426 621q0 16 6.5 31t18 26.5t26 18t31.5 6.5q16 0 31 -6.5t26.5 -18t18 -26.5t6.5 -31q0 -17 -6.5 -31.5t-18 -26t-26.5 -18t-31 -6.5q-17 0 -31.5 6.5t-26 18t-18 26t-6.5 31.5z" />
    <glyph glyph-name="ayniso" unicode="&#x639;" horiz-adv-x="702" arabic-form="isolated" 
d="M233 192q-11 10 -20 25t-16.5 31.5t-11.5 33t-4 30.5q0 50 18.5 94t52 77t81 52t104.5 19t99.5 -15t77.5 -47q10 -9 15.5 -22t5.5 -27q0 -26 -18.5 -46.5t-49.5 -20.5q-12 0 -22 5t-19 10q-15 9 -37.5 16.5t-61.5 7.5q-22 0 -41 -8t-32.5 -22t-21.5 -33t-8 -40t8 -40
t21.5 -33.5t32.5 -23t42 -8.5h161q30 0 51.5 -19t21.5 -48t-21.5 -49t-51.5 -20h-287q-49 0 -83.5 -28.5t-34.5 -77.5q0 -23 8.5 -44.5t25 -37.5t40 -25.5t52.5 -9.5q45 0 73 10.5t48 30.5q9 9 21 15t25 6q29 0 48.5 -20t19.5 -46q0 -17 -5.5 -28.5t-13.5 -19.5
q-10 -11 -28 -26t-44 -28.5t-60 -23t-75 -9.5q-63 0 -114 19.5t-87.5 53t-56.5 80t-20 100.5q0 46 13.5 86t39 70.5t60.5 49.5t79 24z" />
    <glyph glyph-name="ghaiso" unicode="&#x63a;" horiz-adv-x="702" arabic-form="isolated" 
d="M233 192q-11 10 -20 25t-16.5 31.5t-11.5 33t-4 30.5q0 50 18.5 94t52 77t81 52t104.5 19t99.5 -15t77.5 -47q10 -9 15.5 -22t5.5 -27q0 -26 -18.5 -46.5t-49.5 -20.5q-12 0 -22 5t-19 10q-15 9 -37.5 16.5t-61.5 7.5q-22 0 -41 -8t-32.5 -22t-21.5 -33t-8 -40t8 -40
t21.5 -33.5t32.5 -23t42 -8.5h161q30 0 51.5 -19t21.5 -48t-21.5 -49t-51.5 -20h-287q-49 0 -83.5 -28.5t-34.5 -77.5q0 -23 8.5 -44.5t25 -37.5t40 -25.5t52.5 -9.5q45 0 73 10.5t48 30.5q9 9 21 15t25 6q29 0 48.5 -20t19.5 -46q0 -17 -5.5 -28.5t-13.5 -19.5
q-10 -11 -28 -26t-44 -28.5t-60 -23t-75 -9.5q-63 0 -114 19.5t-87.5 53t-56.5 80t-20 100.5q0 46 13.5 86t39 70.5t60.5 49.5t79 24zM338 712q0 16 6.5 31t18 26.5t26 18t31.5 6.5q16 0 31 -6.5t26.5 -18t18 -26.5t6.5 -31q0 -17 -6.5 -31.5t-18 -26t-26.5 -18t-31 -6.5
q-17 0 -31.5 6.5t-26 18t-18 26t-6.5 31.5z" />
    <glyph glyph-name="faiso" unicode="&#x641;" horiz-adv-x="1049" arabic-form="isolated" 
d="M561 139q-25 52 -25 109q0 49 18.5 92t51 75t75.5 50.5t92 18.5t92 -18.5t75 -50.5t50.5 -75t18.5 -92t-16 -94t-46 -79t-74 -54.5t-100 -20.5h-431q-75 0 -131.5 20.5t-94.5 57.5t-57 89.5t-19 115.5v74q0 29 21 50t51 21q29 0 50 -21t21 -50v-38q0 -42 6 -75.5
t23 -56.5t49 -35.5t83 -12.5h217zM773 139q22 0 41.5 8.5t34.5 23.5t23.5 34.5t8.5 42.5q0 22 -8.5 42t-23.5 34.5t-34.5 23t-41.5 8.5q-23 0 -43 -8.5t-34.5 -23t-23 -34.5t-8.5 -42q0 -23 8.5 -42.5t23 -34.5t34.5 -23.5t43 -8.5zM686 621q0 16 6.5 31t18 26.5t26 18
t31.5 6.5q16 0 31 -6.5t26.5 -18t18 -26.5t6.5 -31q0 -17 -6.5 -31.5t-18 -26t-26.5 -18t-31 -6.5q-17 0 -31.5 6.5t-26 18t-18 26t-6.5 31.5z" />
    <glyph glyph-name="kaafiso" unicode="&#x642;" horiz-adv-x="1049" arabic-form="isolated" 
d="M561 139q-25 52 -25 109q0 49 18.5 92t51 75t75.5 50.5t92 18.5t92 -18.5t75 -50.5t50.5 -75t18.5 -92t-16 -94t-46 -79t-74 -54.5t-100 -20.5h-431q-75 0 -131.5 20.5t-94.5 57.5t-57 89.5t-19 115.5v74q0 29 21 50t51 21q29 0 50 -21t21 -50v-38q0 -42 6 -75.5
t23 -56.5t49 -35.5t83 -12.5h217zM773 139q22 0 41.5 8.5t34.5 23.5t23.5 34.5t8.5 42.5q0 22 -8.5 42t-23.5 34.5t-34.5 23t-41.5 8.5q-23 0 -43 -8.5t-34.5 -23t-23 -34.5t-8.5 -42q0 -23 8.5 -42.5t23 -34.5t34.5 -23.5t43 -8.5zM588 621q0 16 6.5 31t18 26.5t26 18
t31.5 6.5q16 0 31 -6.5t26.5 -18t18 -26.5t6.5 -31q0 -33 -24.5 -57.5t-57.5 -24.5q-17 0 -31.5 6.5t-26 18t-18 26t-6.5 31.5zM785 621q0 16 6.5 31t18 26.5t26 18t31.5 6.5q16 0 31 -6.5t26.5 -18t18 -26.5t6.5 -31q0 -17 -6.5 -31.5t-18 -26t-26.5 -18t-31 -6.5
q-17 0 -31.5 6.5t-26 18t-18 26t-6.5 31.5z" />
    <glyph glyph-name="kafiso" unicode="&#x643;" horiz-adv-x="867" arabic-form="isolated" 
d="M342 0q-77 0 -133.5 20.5t-94 59t-56 92.5t-18.5 120v4q0 29 21 50t51 21q29 0 49.5 -20.5t21.5 -49.5q0 -43 8.5 -73t27 -49t49.5 -27.5t76 -8.5h199q36 0 59.5 7t37 19.5t19 31t5.5 42.5v445q0 29 21 50t51 21q29 0 50 -21t21 -50v-409q0 -79 -13 -132t-43.5 -84.5
t-80 -45t-122.5 -13.5h-206zM494 531q-10 8 -21.5 11.5t-22.5 3.5q-20 0 -34 -14t-14 -34t14 -33.5t34 -13.5h66q18 0 28 -12t10 -25q0 -14 -10 -25.5t-28 -11.5h-192q-17 0 -27 11.5t-10 25.5q0 13 10 25t27 12h20q-11 14 -13 27.5t-2 24.5q0 24 9.5 45t25.5 36t38 24t47 9
q52 0 86 -34q12 -10 12 -25q0 -17 -10.5 -25.5t-23.5 -8.5q-10 0 -19 7z" />
    <glyph glyph-name="lamiso" unicode="&#x644;" horiz-adv-x="728" arabic-form="isolated" 
d="M345 -146q-73 0 -129 21.5t-94.5 61t-58.5 96t-20 126.5v24q0 29 21 50t51 21q29 0 50 -21t21 -50v-21q0 -39 12 -70.5t33.5 -53.5t51 -34t64.5 -12q34 0 63 12t50 34t33 53.5t12 70.5v521q0 29 21 50t51 21q29 0 50 -21t21 -50v-518q0 -65 -17.5 -121.5t-54.5 -98.5
t-94.5 -66.5t-136.5 -24.5z" />
    <glyph glyph-name="meemiso" unicode="&#x645;" horiz-adv-x="760" arabic-form="isolated" 
d="M486 409q51 0 95.5 -19.5t78 -53t53 -78t19.5 -95.5t-19.5 -96.5t-53 -79t-78 -53t-95.5 -19.5q-66 0 -120.5 31t-87.5 82q-21 -8 -38 -16t-29.5 -20t-19.5 -30t-7 -48v-184q0 -28 -28 -28h-87q-28 0 -28 28v180q0 55 17 94.5t45 68t63.5 48.5t72.5 36v24q0 45 20 86
t54 72.5t79 50.5t94 19zM485 54q21 0 40 9t33.5 24t22.5 34.5t8 40.5t-8 40.5t-22.5 34.5t-33.5 24t-40 9t-40 -9t-33.5 -24t-22.5 -34.5t-8 -40.5t8 -40.5t22.5 -34.5t33.5 -24t40 -9z" />
    <glyph glyph-name="nouniso" unicode="&#x646;" horiz-adv-x="689" arabic-form="isolated" 
d="M187 175q0 -88 40 -135t121 -47q40 0 69.5 13.5t49 37t29.5 56t10 70.5v187q0 29 21 50t51 21q29 0 50 -21t21 -50v-181q0 -80 -21.5 -140.5t-61 -101t-95.5 -60.5t-125 -20t-125 20t-95 60t-60.5 99t-21.5 137v187q0 29 21 50t51 21q29 0 50 -21t21 -50v-182zM266 621
q0 16 6.5 31t18 26.5t26 18t31.5 6.5q16 0 31 -6.5t26.5 -18t18 -26.5t6.5 -31q0 -17 -6.5 -31.5t-18 -26t-26.5 -18t-31 -6.5q-17 0 -31.5 6.5t-26 18t-18 26t-6.5 31.5z" />
    <glyph glyph-name="haini" unicode="&#x647;" horiz-adv-x="677" arabic-form="initial" 
d="M204 430q-29 0 -49 20t-20 49t20 49.5t49 20.5h49q100 0 172.5 -31.5t119.5 -88t69.5 -135.5t22.5 -175v-139h-637l-20 20v99l20 20h77q-5 14 -7.5 30t-2.5 32q0 36 14 68t38 55.5t56.5 37.5t69.5 14q36 0 68.5 -14t56.5 -37.5t38 -55.5t14 -68q0 -17 -2.5 -32.5
t-7.5 -29.5h82q0 60 -10 113t-36.5 92.5t-73 62.5t-121.5 23h-49zM244 135q28 0 48 20t20 49q0 28 -20 47.5t-48 19.5q-29 0 -49 -19.5t-20 -47.5q0 -29 20 -49t49 -20z" />
    <glyph glyph-name="wawiso" unicode="&#x648;" horiz-adv-x="575" arabic-form="isolated" 
d="M165 -250q-29 0 -50 21t-21 50q0 30 21 49t50 19h112q21 0 40 8t33.5 22.5t22.5 33.5t8 41v6h-103q-54 0 -99.5 18.5t-78.5 50.5t-51.5 76.5t-18.5 95.5t19.5 95.5t53 78t79 53t96.5 19.5t95.5 -19.5t78 -53t53 -78t19.5 -95.5v-247q0 -51 -19.5 -95.5t-53 -77.5t-78 -52
t-95.5 -19h-113zM381 139v101q0 21 -8 40t-22.5 33.5t-33.5 22.5t-40 8t-40 -8t-33.5 -22.5t-22.5 -33.5t-8 -40q0 -43 28.5 -72t75.5 -29h104z" />
    <glyph glyph-name="alefma2souraiso" unicode="&#x649;" horiz-adv-x="937" arabic-form="isolated" 
d="M168 133q0 -29 7.5 -54.5t26 -44t49.5 -29.5t78 -11h236q77 0 77 35q0 7 -3.5 15.5t-8.5 19.5l-68 141q-9 17 -12.5 33.5t-3.5 30.5q0 28 10.5 56t33 51t57 37.5t81.5 14.5q54 0 101 -27t77 -65q8 -10 12 -20t4 -22q0 -13 -6 -25.5t-15.5 -22t-22.5 -15t-26 -5.5
q-21 0 -33 9t-22 20q-11 14 -22.5 23.5t-36.5 9.5q-21 0 -33 -12t-12 -26q0 -8 3.5 -18.5t9 -22l11 -23t10.5 -20.5l37 -72q13 -24 20.5 -48.5t7.5 -47.5q0 -35 -18 -61.5t-47 -44.5t-66.5 -27.5t-77.5 -9.5h-256q-84 0 -142 26.5t-93.5 67t-51 89.5t-15.5 95v79q0 29 21 50
t51 21q29 0 50 -21t21 -50v-79v0z" />
    <glyph glyph-name="yaiso" unicode="&#x64a;" horiz-adv-x="937" arabic-form="isolated" 
d="M168 133q0 -29 7.5 -54.5t26 -44t49.5 -29.5t78 -11h236q77 0 77 35q0 7 -3.5 15.5t-8.5 19.5l-68 141q-9 17 -12.5 33.5t-3.5 30.5q0 28 10.5 56t33 51t57 37.5t81.5 14.5q54 0 101 -27t77 -65q8 -10 12 -20t4 -22q0 -13 -6 -25.5t-15.5 -22t-22.5 -15t-26 -5.5
q-21 0 -33 9t-22 20q-11 14 -22.5 23.5t-36.5 9.5q-21 0 -33 -12t-12 -26q0 -8 3.5 -18.5t9 -22l11 -23t10.5 -20.5l37 -72q13 -24 20.5 -48.5t7.5 -47.5q0 -35 -18 -61.5t-47 -44.5t-66.5 -27.5t-77.5 -9.5h-256q-84 0 -142 26.5t-93.5 67t-51 89.5t-15.5 95v79q0 29 21 50
t51 21q29 0 50 -21t21 -50v-79v0zM247 -287q0 16 6.5 31t18 26.5t26 18t31.5 6.5q16 0 31 -6.5t26.5 -18t18 -26.5t6.5 -31q0 -33 -24.5 -57.5t-57.5 -24.5q-17 0 -31.5 6.5t-26 18t-18 26t-6.5 31.5zM444 -287q0 16 6.5 31t18 26.5t26 18t31.5 6.5q16 0 31 -6.5t26.5 -18
t18 -26.5t6.5 -31q0 -17 -6.5 -31.5t-18 -26t-26.5 -18t-31 -6.5q-17 0 -31.5 6.5t-26 18t-18 26t-6.5 31.5z" />
    <glyph glyph-name="alefwaslaiso" unicode="&#x671;" horiz-adv-x="304" arabic-form="isolated" 
d="M81 684q0 29 21 50t51 21q29 0 50 -21t21 -50v-656q0 -28 -28 -28h-87q-28 0 -28 28v656z" />
    <glyph glyph-name="piso.001" unicode="&#x67e;" horiz-adv-x="978" arabic-form="isolated" 
d="M206 297q0 -43 8.5 -73t27 -49t49.5 -27.5t76 -8.5h256q87 0 122.5 38t35.5 115v65q0 29 21 50t51 21q29 0 50 -21t21 -50v-59q0 -69 -18.5 -124.5t-56 -94t-94.5 -59t-134 -20.5h-256q-77 0 -133.5 20.5t-94 59t-56 92.5t-18.5 120v65q0 29 21 50t51 21q29 0 50 -21
t21 -50v-60zM441 -304.904q0 -15.998 6.5 -30.9961t18 -26.4971t26 -17.998t31.5 -6.49902q16 0 31 6.49902t26.5 17.998t18 26.4971t6.5 30.9961q0 16.998 -6.5 31.4961t-18 25.9971q-11.5 11.498 -26.5 17.9971q-15 6.5 -31 6.5q-17 0 -31.5 -6.5
q-14.5 -6.49902 -26 -17.9971q-11.5 -11.499 -18 -25.9971t-6.5 -31.4961zM343 -142.924q0 -15.998 6.5 -30.9971q6.5 -14.998 18 -26.4961q11.5 -11.499 26 -17.998t31.5 -6.49902q16 0 31 6.49902t26.5 17.998q11.5 11.498 18 26.4961q6.5 14.999 6.5 30.9971
q0 16.9971 -6.5 31.4961q-6.5 14.498 -18 25.9961q-11.5 11.499 -26.5 17.998t-31 6.49902q-17 0 -31.5 -6.49902t-26 -17.998q-11.5 -11.498 -18 -25.9961q-6.5 -14.499 -6.5 -31.4961zM540 -142.924q0 -15.998 6.5 -30.9971q6.5 -14.998 18 -26.4961
q11.5 -11.499 26 -17.998t31.5 -6.49902q16 0 31 6.49902t26.5 17.998q11.5 11.498 18 26.4961q6.5 14.999 6.5 30.9971q0 16.9971 -6.5 31.4961q-6.5 14.498 -18 25.9961q-11.5 11.499 -26.5 17.998t-31 6.49902q-17 0 -31.5 -6.49902t-26 -17.998
q-11.5 -11.498 -18 -25.9961q-6.5 -14.499 -6.5 -31.4961z" />
    <glyph glyph-name="giso" unicode="&#x686;" horiz-adv-x="699" arabic-form="isolated" 
d="M645 71h-284q-49 0 -83.5 -28.5t-34.5 -77.5q0 -23 8.5 -44.5t25 -37.5t40 -25.5t52.5 -9.5q45 0 73 10.5t48 30.5q9 9 21 15t25 6q29 0 48.5 -20t19.5 -46q0 -17 -5.5 -28.5t-13.5 -19.5q-10 -11 -28 -26t-44 -28.5t-60 -23t-75 -9.5q-63 0 -114 19.5t-88 53t-57 80
t-20 100.5t19.5 99.5t52 78t73.5 50.5t85 17h173v105q0 21 -8 40t-21.5 33t-32.5 22t-41 8q-39 0 -61.5 -7.5t-37.5 -16.5q-9 -5 -19 -10t-22 -5q-31 0 -49.5 20.5t-18.5 46.5q0 14 5.5 27t15.5 22q35 32 77.5 47t99.5 15t104.5 -19t81 -52t52 -77t18.5 -94v-241z
M235.266 -234.933q0 -8.24414 3.34863 -15.9727q3.34961 -7.72949 9.27539 -13.6543q5.9248 -5.92578 13.3965 -9.27441q7.4707 -3.34961 16.2305 -3.34961q8.24414 0 15.9727 3.34961q7.72949 3.34863 13.6543 9.27441q5.92578 5.9248 9.27539 13.6543
q3.34863 7.72852 3.34863 15.9727q0 8.75977 -3.34863 16.2305q-3.34961 7.47168 -9.27539 13.3975q-5.9248 5.9248 -13.6543 9.27441q-7.72852 3.34863 -15.9727 3.34863q-8.75977 0 -16.2305 -3.34863q-7.47168 -3.34961 -13.3965 -9.27441
q-5.92578 -5.92578 -9.27539 -13.3975q-3.34863 -7.4707 -3.34863 -16.2305zM184.77 -151.461q0 -8.24414 3.34961 -15.9727t9.27441 -13.6543q5.92578 -5.92578 13.3975 -9.27441q7.4707 -3.34961 16.2305 -3.34961q8.24414 0 15.9727 3.34961
q7.72852 3.34863 13.6543 9.27441t9.27441 13.6543q3.34961 7.72852 3.34961 15.9727q0 8.75977 -3.34961 16.2314q-3.34863 7.4707 -9.27441 13.3965t-13.6543 9.27441q-7.72852 3.34961 -15.9727 3.34961q-8.75977 0 -16.2305 -3.34961
q-7.47168 -3.34863 -13.3975 -9.27441q-5.9248 -5.92578 -9.27441 -13.3965q-3.34961 -7.47168 -3.34961 -16.2314zM286.276 -151.461q0 -8.24414 3.34863 -15.9727q3.34961 -7.72852 9.27441 -13.6543q5.92578 -5.92578 13.3975 -9.27441q7.4707 -3.34961 16.2305 -3.34961
q8.24414 0 15.9727 3.34961q7.72949 3.34863 13.6543 9.27441q5.92578 5.92578 9.27539 13.6543q3.34863 7.72852 3.34863 15.9727q0 8.75977 -3.34863 16.2314q-3.34961 7.4707 -9.27539 13.3965q-5.9248 5.92578 -13.6543 9.27441q-7.72852 3.34961 -15.9727 3.34961
q-8.75977 0 -16.2305 -3.34961q-7.47168 -3.34863 -13.3975 -9.27441q-5.9248 -5.92578 -9.27441 -13.3965q-3.34863 -7.47168 -3.34863 -16.2314z" />
    <glyph glyph-name="jehiso" unicode="&#x698;" horiz-adv-x="366" arabic-form="isolated" 
d="M163 357q0 29 21 50t51 21q29 0 50 -21t21 -50v-363q0 -51 -19.5 -95.5t-53 -77.5t-78 -52t-95.5 -19h-53q-29 0 -50 21t-21 50q0 30 21 49t50 19h52q21 0 40 8t33.5 22.5t22.5 33.5t8 41v363zM136 782q0 16 6.5 31t18 26.5t26 18t31.5 6.5q16 0 31 -6.5t26.5 -18
t18 -26.5t6.5 -31q0 -17 -6.5 -31.5t-18 -26t-26.5 -18t-31 -6.5q-17 0 -31.5 6.5t-26 18t-18 26t-6.5 31.5zM38 620q0 16 6.5 31t18 26.5t26 18t31.5 6.5q16 0 31 -6.5t26.5 -18t18 -26.5t6.5 -31q0 -17 -6.5 -31.5t-18 -26t-26.5 -18t-31 -6.5q-17 0 -31.5 6.5t-26 18
t-18 26t-6.5 31.5zM235 620q0 16 6.5 31t18 26.5t26 18t31.5 6.5q16 0 31 -6.5t26.5 -18t18 -26.5t6.5 -31q0 -17 -6.5 -31.5t-18 -26t-26.5 -18t-31 -6.5q-17 0 -31.5 6.5t-26 18t-18 26t-6.5 31.5z" />
    <glyph glyph-name="vehiso" unicode="&#x6a4;" horiz-adv-x="1087" arabic-form="isolated" 
d="M796 139q22 0 41.5 8.5t34.5 23.5t23.5 34.5t8.5 42.5q0 22 -8.5 42t-23.5 34.5t-34.5 23t-41.5 8.5q-23 0 -43 -8.5t-34.5 -23t-23 -34.5t-8.5 -42q0 -23 8.5 -42.5t23 -34.5t34.5 -23.5t43 -8.5zM585 139q-26 49 -26 109q0 49 18.5 92t51 75t75.5 50.5t92 18.5
t92 -18.5t75 -50.5t50.5 -75t18.5 -92q0 -30 -7 -57.5t-20 -51.5h82l20 -20v-99l-20 -20h-745q-75 0 -131.5 20.5t-94.5 57.5t-57 89.5t-19 115.5v74q0 29 21 50t51 21q29 0 50 -21t21 -50v-38q0 -42 6 -75.5t23 -56.5t49 -35.5t83 -12.5h241zM703 782q0 16 6.5 31t18 26.5
t26 18t31.5 6.5q16 0 31 -6.5t26.5 -18t18 -26.5t6.5 -31q0 -17 -6.5 -31.5t-18 -26t-26.5 -18t-31 -6.5q-17 0 -31.5 6.5t-26 18t-18 26t-6.5 31.5zM605 620q0 16 6.5 31t18 26.5t26 18t31.5 6.5q16 0 31 -6.5t26.5 -18t18 -26.5t6.5 -31q0 -17 -6.5 -31.5t-18 -26
t-26.5 -18t-31 -6.5q-17 0 -31.5 6.5t-26 18t-18 26t-6.5 31.5zM802 620q0 16 6.5 31t18 26.5t26 18t31.5 6.5q16 0 31 -6.5t26.5 -18t18 -26.5t6.5 -31q0 -17 -6.5 -31.5t-18 -26t-26.5 -18t-31 -6.5q-17 0 -31.5 6.5t-26 18t-18 26t-6.5 31.5z" />
    <glyph glyph-name="kehehiso" unicode="&#x6a9;" horiz-adv-x="864" arabic-form="isolated" 
d="M342 0q-77 0 -133.5 20.5t-94 59t-56 92.5t-18.5 120v4q0 29 21 50t51 21q29 0 49.5 -20.5t21.5 -49.5q0 -43 8.5 -73t27 -49t49.5 -27.5t76 -8.5h199q36 0 59.5 7t37 19.5t19 31t5.5 42.5v445q0 29 21 50t51 21q29 0 50 -21t21 -50v-409q0 -79 -13 -132t-43.5 -84.5
t-80 -45t-122.5 -13.5h-206zM494 531q-10 8 -21.5 11.5t-22.5 3.5q-20 0 -34 -14t-14 -34t14 -33.5t34 -13.5h66q18 0 28 -12t10 -25q0 -14 -10 -25.5t-28 -11.5h-192q-17 0 -27 11.5t-10 25.5q0 13 10 25t27 12h20q-11 14 -13 27.5t-2 24.5q0 24 9.5 45t25.5 36t38 24t47 9
q52 0 86 -34q12 -10 12 -25q0 -17 -10.5 -25.5t-23.5 -8.5q-10 0 -19 7z" />
    <glyph glyph-name="gafiso" unicode="&#x6af;" horiz-adv-x="864" arabic-form="isolated" 
d="M342 0q-77 0 -133.5 20.5t-94 59t-56 92.5t-18.5 120v4q0 29 21 50t51 21q29 0 49.5 -20.5t21.5 -49.5q0 -43 8.5 -73t27 -49t49.5 -27.5t76 -8.5h199q36 0 59.5 7t37 19.5t19 31t5.5 42.5v445q0 29 21 50t51 21q29 0 50 -21t21 -50v-409q0 -79 -13 -132t-43.5 -84.5
t-80 -45t-122.5 -13.5h-206zM494 531q-10 8 -21.5 11.5t-22.5 3.5q-20 0 -34 -14t-14 -34t14 -33.5t34 -13.5h66q18 0 28 -12t10 -25q0 -14 -10 -25.5t-28 -11.5h-192q-17 0 -27 11.5t-10 25.5q0 13 10 25t27 12h20q-11 14 -13 27.5t-2 24.5q0 24 9.5 45t25.5 36t38 24t47 9
q52 0 86 -34q12 -10 12 -25q0 -17 -10.5 -25.5t-23.5 -8.5q-10 0 -19 7z" />
    <glyph glyph-name="farsiyaiso" unicode="&#x6cc;" horiz-adv-x="723" arabic-form="isolated" 
d="M172 133q0 -29 7.5 -54.5t26 -44t49.5 -29.5t78 -11h236q77 0 77 35q0 7 -3.5 15.5t-8.5 19.5l-68 141q-9 17 -12.5 33.5t-3.5 30.5q0 28 10.5 56t33 51t57 37.5t81.5 14.5q54 0 101 -27t77 -65q8 -10 12 -20t4 -22q0 -13 -6 -25.5t-15.5 -22t-22.5 -15t-26 -5.5
q-21 0 -33 9t-22 20q-11 14 -22.5 23.5t-36.5 9.5q-21 0 -33 -12t-12 -26q0 -8 3.5 -18.5t9 -22l11 -23t10.5 -20.5l37 -72q13 -24 20.5 -48.5t7.5 -47.5q0 -35 -18 -61.5t-47 -44.5t-66.5 -27.5t-77.5 -9.5h-256q-84 0 -142 26.5t-93.5 67t-51 89.5t-15.5 95v79q0 29 21 50
t51 21q29 0 50 -21t21 -50v-79v0z" />
    <glyph glyph-name="alefwaslafina" unicode="&#x671;" horiz-adv-x="355" arabic-form="final" 
d="M65 684q0 29 21 50t50 21q30 0 51 -21t21 -50v-449q0 -51 20.5 -73.5t70.5 -22.5h56l20 -20v-98l-20 -21h-52q-32 0 -73 10t-78 34t-62 64t-25 99v477v0z" />
    <glyph glyph-name="pfina" unicode="&#x67e;" horiz-adv-x="1063" arabic-form="final" 
d="M780 357q0 29 21 50t51 21q29 0 50 -21t21 -50v-126q1 -51 25 -71.5t73 -20.5h41l20 -20v-99l-20 -20h-41q-26 0 -51.5 6t-49 18t-42 29t-29.5 38q-27 -36 -81.5 -63.5t-135.5 -27.5h-267q-75 0 -131.5 20.5t-94.5 57.5t-57 89.5t-19 115.5v74q0 29 21 50t51 21
q29 0 50 -21t21 -50v-38q0 -42 6 -75.5t23 -56.5t49 -35.5t83 -12.5h263q66 0 108 32.5t42 109.5v76zM412 -304.904q0 -15.998 6.5 -30.9961t18 -26.4971t26 -17.998t31.5 -6.49902q16 0 31 6.49902t26.5 17.998t18 26.4971t6.5 30.9961q0 16.998 -6.5 31.4961t-18 25.9971
q-11.5 11.498 -26.5 17.9971q-15 6.5 -31 6.5q-17 0 -31.5 -6.5q-14.5 -6.49902 -26 -17.9971q-11.5 -11.499 -18 -25.9971t-6.5 -31.4961zM314 -142.924q0 -15.998 6.5 -30.9971q6.5 -14.998 18 -26.4961q11.5 -11.499 26 -17.998t31.5 -6.49902q16 0 31 6.49902
t26.5 17.998q11.5 11.498 18 26.4961q6.5 14.999 6.5 30.9971q0 16.9971 -6.5 31.4961q-6.5 14.498 -18 25.9961q-11.5 11.499 -26.5 17.998t-31 6.49902q-17 0 -31.5 -6.49902t-26 -17.998q-11.5 -11.498 -18 -25.9961q-6.5 -14.499 -6.5 -31.4961zM511 -142.924
q0 -15.998 6.5 -30.9971q6.5 -14.998 18 -26.4961q11.5 -11.499 26 -17.998t31.5 -6.49902q16 0 31 6.49902t26.5 17.998q11.5 11.498 18 26.4961q6.5 14.999 6.5 30.9971q0 16.9971 -6.5 31.4961q-6.5 14.498 -18 25.9961q-11.5 11.499 -26.5 17.998t-31 6.49902
q-17 0 -31.5 -6.49902t-26 -17.998q-11.5 -11.498 -18 -25.9961q-6.5 -14.499 -6.5 -31.4961z" />
    <glyph glyph-name="pini" unicode="&#x67e;" horiz-adv-x="408" arabic-form="initial" 
d="M0 0l-20 21v98l20 20h65q29 0 55.5 6t46.5 18t32 30t12 42v112q0 29 21.5 50t51.5 21q29 0 49.5 -21t20.5 -50v-161q0 -57 -27.5 -93t-70 -57t-93.5 -28.5t-98 -7.5h-65zM87 -305q0 16 6.5 31t18 26.5t26 18t31.5 6.5q16 0 31 -6.5t26.5 -18t18 -26.5t6.5 -31
q0 -17 -6.5 -31.5t-18 -26t-26.5 -18t-31 -6.5q-17 0 -31.5 6.5t-26 18t-18 26t-6.5 31.5zM-11 -143q0 16 6.5 31t18 26.5t26 18t31.5 6.5q16 0 31 -6.5t26.5 -18t18 -26.5t6.5 -31q0 -33 -24.5 -57.5t-57.5 -24.5q-17 0 -31.5 6.5t-26 18t-18 26t-6.5 31.5zM186 -143
q0 16 6.5 31t18 26.5t26 18t31.5 6.5q16 0 31 -6.5t26.5 -18t18 -26.5t6.5 -31q0 -17 -6.5 -31.5t-18 -26t-26.5 -18t-31 -6.5q-17 0 -31.5 6.5t-26 18t-18 26t-6.5 31.5z" />
    <glyph glyph-name="pmedi" unicode="&#x67e;" horiz-adv-x="436" arabic-form="medial" 
d="M145 357q0 29 21 50t51 21q29 0 50 -21t21 -50v-122q0 -24 11.5 -42t31.5 -30t46.5 -18t56.5 -6l20 -20v-99l-20 -20q-85 0 -138.5 22t-78.5 73q-28 -54 -80 -74.5t-137 -20.5l-20 20v99l20 20q30 0 56.5 6t46 18t31 30t11.5 42v122zM134 -304.904
q0 -15.998 6.5 -30.9961t18 -26.4971t26 -17.998t31.5 -6.49902q16 0 31 6.49902t26.5 17.998t18 26.4971t6.5 30.9961q0 16.998 -6.5 31.4961t-18 25.9971q-11.5 11.498 -26.5 17.9971q-15 6.5 -31 6.5q-17 0 -31.5 -6.5q-14.5 -6.49902 -26 -17.9971
q-11.5 -11.499 -18 -25.9971t-6.5 -31.4961zM36 -142.924q0 -15.998 6.5 -30.9971q6.5 -14.998 18 -26.4961q11.5 -11.499 26 -17.998t31.5 -6.49902q16 0 31 6.49902t26.5 17.998q11.5 11.498 18 26.4961q6.5 14.999 6.5 30.9971q0 16.9971 -6.5 31.4961
q-6.5 14.498 -18 25.9961q-11.5 11.499 -26.5 17.998t-31 6.49902q-17 0 -31.5 -6.49902t-26 -17.998q-11.5 -11.498 -18 -25.9961q-6.5 -14.499 -6.5 -31.4961zM233 -142.924q0 -15.998 6.5 -30.9971q6.5 -14.998 18 -26.4961q11.5 -11.499 26 -17.998t31.5 -6.49902
q16 0 31 6.49902t26.5 17.998q11.5 11.498 18 26.4961q6.5 14.999 6.5 30.9971q0 16.9971 -6.5 31.4961q-6.5 14.498 -18 25.9961q-11.5 11.499 -26.5 17.998t-31 6.49902q-17 0 -31.5 -6.49902t-26 -17.998q-11.5 -11.498 -18 -25.9961q-6.5 -14.499 -6.5 -31.4961z" />
    <glyph glyph-name="gfina" unicode="&#x686;" horiz-adv-x="792" arabic-form="final" 
d="M644 242q0 -31 4.5 -51.5t10.5 -28.5q17 -23 73 -23h59l20 -20v-99l-20 -20h-79q-64 0 -102.5 18t-58.5 53h-191q-49 0 -83.5 -28.5t-34.5 -77.5q0 -23 8.5 -44.5t25 -37.5t40 -25.5t52.5 -9.5q45 0 73 10.5t48 30.5q9 9 21 15t25 6q29 0 48.5 -20t19.5 -46
q0 -17 -5.5 -28.5t-13.5 -19.5q-10 -11 -28 -26t-44 -28.5t-60 -23t-75 -9.5q-63 0 -114 19.5t-88 53t-57 80t-20 100.5t19.5 99.5t52 78t73.5 50.5t85 17h173v105q0 21 -8 40t-21.5 33t-32.5 22t-41 8q-39 0 -61.5 -7.5t-37.5 -16.5q-9 -5 -19 -10t-22 -5q-31 0 -49.5 20.5
t-18.5 46.5q0 14 5.5 27t15.5 22q35 32 77.5 47t99.5 15t104.5 -19t81 -52t52 -77t18.5 -94v-70zM235.266 -234.933q0 -8.24414 3.34863 -15.9727q3.34961 -7.72949 9.27539 -13.6543q5.9248 -5.92578 13.3965 -9.27441q7.4707 -3.34961 16.2305 -3.34961
q8.24414 0 15.9727 3.34961q7.72949 3.34863 13.6543 9.27441q5.92578 5.9248 9.27539 13.6543q3.34863 7.72852 3.34863 15.9727q0 8.75977 -3.34863 16.2305q-3.34961 7.47168 -9.27539 13.3975q-5.9248 5.9248 -13.6543 9.27441q-7.72852 3.34863 -15.9727 3.34863
q-8.75977 0 -16.2305 -3.34863q-7.47168 -3.34961 -13.3965 -9.27441q-5.92578 -5.92578 -9.27539 -13.3975q-3.34863 -7.4707 -3.34863 -16.2305zM184.77 -151.461q0 -8.24414 3.34961 -15.9727t9.27441 -13.6543q5.92578 -5.92578 13.3975 -9.27441
q7.4707 -3.34961 16.2305 -3.34961q8.24414 0 15.9727 3.34961q7.72852 3.34863 13.6543 9.27441t9.27441 13.6543q3.34961 7.72852 3.34961 15.9727q0 8.75977 -3.34961 16.2314q-3.34863 7.4707 -9.27441 13.3965t-13.6543 9.27441q-7.72852 3.34961 -15.9727 3.34961
q-8.75977 0 -16.2305 -3.34961q-7.47168 -3.34863 -13.3975 -9.27441q-5.9248 -5.92578 -9.27441 -13.3965q-3.34961 -7.47168 -3.34961 -16.2314zM286.276 -151.461q0 -8.24414 3.34863 -15.9727q3.34961 -7.72852 9.27441 -13.6543q5.92578 -5.92578 13.3975 -9.27441
q7.4707 -3.34961 16.2305 -3.34961q8.24414 0 15.9727 3.34961q7.72949 3.34863 13.6543 9.27441q5.92578 5.92578 9.27539 13.6543q3.34863 7.72852 3.34863 15.9727q0 8.75977 -3.34863 16.2314q-3.34961 7.4707 -9.27539 13.3965q-5.9248 5.92578 -13.6543 9.27441
q-7.72852 3.34961 -15.9727 3.34961q-8.75977 0 -16.2305 -3.34961q-7.47168 -3.34863 -13.3975 -9.27441q-5.9248 -5.92578 -9.27441 -13.3965q-3.34863 -7.47168 -3.34863 -16.2314z" />
    <glyph glyph-name="gini" unicode="&#x686;" horiz-adv-x="598" arabic-form="initial" 
d="M0 0l-20 20v99l20 20h400v66q0 65 -37.5 104t-105.5 39q-28 0 -50.5 -7.5t-42.5 -21.5q-18 -13 -40 -13q-27 0 -46.5 19.5t-19.5 45.5q0 17 7 30.5t18 21.5q37 29 81.5 46.5t102.5 17.5q61 0 112 -20t87.5 -57t56.5 -89t20 -116v-205h-543zM186 -304.904
q0 -15.998 6.5 -30.9961t18 -26.4971t26 -17.998t31.5 -6.49902q16 0 31 6.49902t26.5 17.998t18 26.4971t6.5 30.9961q0 16.998 -6.5 31.4961t-18 25.9971q-11.5 11.498 -26.5 17.9971q-15 6.5 -31 6.5q-17 0 -31.5 -6.5q-14.5 -6.49902 -26 -17.9971
q-11.5 -11.499 -18 -25.9971t-6.5 -31.4961zM88 -142.924q0 -15.998 6.5 -30.9971q6.5 -14.998 18 -26.4961q11.5 -11.499 26 -17.998t31.5 -6.49902q16 0 31 6.49902t26.5 17.998q11.5 11.498 18 26.4961q6.5 14.999 6.5 30.9971q0 16.9971 -6.5 31.4961
q-6.5 14.498 -18 25.9961q-11.5 11.499 -26.5 17.998t-31 6.49902q-17 0 -31.5 -6.49902t-26 -17.998q-11.5 -11.498 -18 -25.9961q-6.5 -14.499 -6.5 -31.4961zM285 -142.924q0 -15.998 6.5 -30.9971q6.5 -14.998 18 -26.4961q11.5 -11.499 26 -17.998t31.5 -6.49902
q16 0 31 6.49902t26.5 17.998q11.5 11.498 18 26.4961q6.5 14.999 6.5 30.9971q0 16.9971 -6.5 31.4961q-6.5 14.498 -18 25.9961q-11.5 11.499 -26.5 17.998t-31 6.49902q-17 0 -31.5 -6.49902t-26 -17.998q-11.5 -11.498 -18 -25.9961q-6.5 -14.499 -6.5 -31.4961z" />
    <glyph glyph-name="gmedi" unicode="&#x686;" horiz-adv-x="577" arabic-form="medial" 
d="M597 119v-99l-20 -20h-577l-20 20v99l20 20h400v66q0 65 -37.5 104t-105.5 39q-28 0 -50.5 -7.5t-42.5 -21.5q-18 -13 -40 -13q-27 0 -46.5 19.5t-19.5 45.5q0 17 7 30.5t18 21.5q36 29 81 46.5t103 17.5q61 0 112 -20t87.5 -57t56.5 -89t20 -116v-66h34zM198 -296.904
q0 -15.998 6.5 -30.9961t18 -26.4971t26 -17.998t31.5 -6.49902q16 0 31 6.49902t26.5 17.998t18 26.4971t6.5 30.9961q0 16.998 -6.5 31.4961t-18 25.9971q-11.5 11.498 -26.5 17.9971q-15 6.5 -31 6.5q-17 0 -31.5 -6.5q-14.5 -6.49902 -26 -17.9971
q-11.5 -11.499 -18 -25.9971t-6.5 -31.4961zM100 -134.924q0 -15.998 6.5 -30.9971q6.5 -14.998 18 -26.4961q11.5 -11.499 26 -17.998t31.5 -6.49902q16 0 31 6.49902t26.5 17.998q11.5 11.498 18 26.4961q6.5 14.999 6.5 30.9971q0 16.9971 -6.5 31.4961
q-6.5 14.498 -18 25.9961q-11.5 11.499 -26.5 17.998t-31 6.49902q-17 0 -31.5 -6.49902t-26 -17.998q-11.5 -11.498 -18 -25.9961q-6.5 -14.499 -6.5 -31.4961zM297 -134.924q0 -15.998 6.5 -30.9971q6.5 -14.998 18 -26.4961q11.5 -11.499 26 -17.998t31.5 -6.49902
q16 0 31 6.49902t26.5 17.998q11.5 11.498 18 26.4961q6.5 14.999 6.5 30.9971q0 16.9971 -6.5 31.4961q-6.5 14.498 -18 25.9961q-11.5 11.499 -26.5 17.998t-31 6.49902q-17 0 -31.5 -6.49902t-26 -17.998q-11.5 -11.498 -18 -25.9961q-6.5 -14.499 -6.5 -31.4961z" />
    <glyph glyph-name="jehfina" unicode="&#x698;" horiz-adv-x="465" arabic-form="final" 
d="M306 -6q0 -51 -19.5 -95.5t-53 -77.5t-78 -52t-95.5 -19h-53q-29 0 -50 21t-21 50q0 30 21 49t50 19h52q21 0 40 8t33.5 22.5t22.5 33.5t8 41v363q0 29 21 50t51 21q29 0 50 -21t21 -50v-147q2 -41 28.5 -56t67.5 -15h63l20 -20v-99l-20 -20h-56q-32 0 -60.5 11t-42.5 28
v-45zM175 782q0 16 6.5 31t18 26.5t26 18t31.5 6.5q16 0 31 -6.5t26.5 -18t18 -26.5t6.5 -31q0 -17 -6.5 -31.5t-18 -26t-26.5 -18t-31 -6.5q-17 0 -31.5 6.5t-26 18t-18 26t-6.5 31.5zM77 620q0 16 6.5 31t18 26.5t26 18t31.5 6.5q16 0 31 -6.5t26.5 -18t18 -26.5t6.5 -31
q0 -17 -6.5 -31.5t-18 -26t-26.5 -18t-31 -6.5q-17 0 -31.5 6.5t-26 18t-18 26t-6.5 31.5zM274 620q0 16 6.5 31t18 26.5t26 18t31.5 6.5q16 0 31 -6.5t26.5 -18t18 -26.5t6.5 -31q0 -17 -6.5 -31.5t-18 -26t-26.5 -18t-31 -6.5q-17 0 -31.5 6.5t-26 18t-18 26t-6.5 31.5z
" />
    <glyph glyph-name="kehehfina" unicode="&#x6a9;" horiz-adv-x="944" arabic-form="final" 
d="M342 0q-77 0 -133.5 20.5t-94 59t-56 92.5t-18.5 120v4q0 29 21 50t51 21q29 0 50 -21t21 -50q0 -43 8.5 -73t27 -48.5t49.5 -27t76 -8.5h199q36 0 59.5 7t37 19.5t19 31t5.5 42.5v445q0 29 21 50t51 21q29 0 50 -21t21 -50v-409q0 -33 4 -58.5t14.5 -43t29 -26
t48.5 -8.5h41l20 -20v-99l-20 -20q-67 0 -121 18.5t-85 74.5q-15 -28 -35 -46t-44 -28.5t-52 -14.5t-59 -4h-206zM494 531q-10 8 -21.5 11.5t-22.5 3.5q-20 0 -34 -14t-14 -34t14 -33.5t34 -13.5h66q18 0 28 -12t10 -25q0 -14 -10 -25.5t-28 -11.5h-192q-17 0 -27 11.5
t-10 25.5q0 13 10 25t27 12h20q-11 14 -13 27.5t-2 24.5q0 24 9.5 45t25.5 36t38 24t47 9q52 0 86 -34q12 -10 12 -25q0 -17 -10.5 -25.5t-23.5 -8.5q-10 0 -19 7z" />
    <glyph glyph-name="kafini" unicode="&#x6a9;" horiz-adv-x="626" arabic-form="initial" 
d="M0 139h443v7q0 42 -6.5 73t-24.5 51.5t-49.5 30t-81.5 9.5h-198q-20 0 -27.5 11.5t-7.5 28.5v27q0 14 4.5 25.5t18.5 25.5l304 316q19 19 47 19t47 -19.5t19 -47.5q0 -12 -4.5 -24.5t-15.5 -23.5l-205 -206h18q159 0 232 -77.5t73 -218.5v-87q0 -12 -6.5 -23t-16.5 -19
t-23 -12.5t-25 -4.5h-515l-20 20v99z" />
    <glyph glyph-name="kafmedi" unicode="&#x6a9;" horiz-adv-x="671" arabic-form="medial" 
d="M263 442h18q159 0 232 -77.5t73 -218.5v-7h85l20 -20v-99l-20 -20h-671l-20 20v99l20 20h443v7q0 42 -6.5 73t-24.5 51.5t-49.5 30t-81.5 9.5h-198q-20 0 -27.5 11.5t-7.5 28.5v27q0 14 4.5 25.5t18.5 25.5l304 316q19 19 47 19t47 -19.5t19 -47.5q0 -12 -4.5 -24.5
t-15.5 -23.5z" />
    <glyph glyph-name="gaffina" unicode="&#x6af;" horiz-adv-x="944" arabic-form="final" 
d="M342 0q-77 0 -133.5 20.5t-94 59t-56 92.5t-18.5 120v4q0 29 21 50t51 21q29 0 50 -21t21 -50q0 -43 8.5 -73t27 -48.5t49.5 -27t76 -8.5h199q36 0 59.5 7t37 19.5t19 31t5.5 42.5v445q0 29 21 50t51 21q29 0 50 -21t21 -50v-409q0 -33 4 -58.5t14.5 -43t29 -26
t48.5 -8.5h41l20 -20v-99l-20 -20q-67 0 -121 18.5t-85 74.5q-15 -28 -35 -46t-44 -28.5t-52 -14.5t-59 -4h-206zM494 531q-10 8 -21.5 11.5t-22.5 3.5q-20 0 -34 -14t-14 -34t14 -33.5t34 -13.5h66q18 0 28 -12t10 -25q0 -14 -10 -25.5t-28 -11.5h-192q-17 0 -27 11.5
t-10 25.5q0 13 10 25t27 12h20q-11 14 -13 27.5t-2 24.5q0 24 9.5 45t25.5 36t38 24t47 9q52 0 86 -34q12 -10 12 -25q0 -17 -10.5 -25.5t-23.5 -8.5q-10 0 -19 7z" />
    <glyph glyph-name="gafini" unicode="&#x6af;" horiz-adv-x="626" arabic-form="initial" 
d="M0 139h443v7q0 42 -6.5 73t-24.5 51.5t-49.5 30t-81.5 9.5h-198q-20 0 -27.5 11.5t-7.5 28.5v27q0 14 4.5 25.5t18.5 25.5l304 316q19 19 47 19t47 -19.5t19 -47.5q0 -12 -4.5 -24.5t-15.5 -23.5l-205 -206h18q159 0 232 -77.5t73 -218.5v-87q0 -12 -6.5 -23t-16.5 -19
t-23 -12.5t-25 -4.5h-515l-20 20v99z" />
    <glyph glyph-name="gafmedi" unicode="&#x6af;" horiz-adv-x="671" arabic-form="medial" 
d="M263 442h18q159 0 232 -77.5t73 -218.5v-7h85l20 -20v-99l-20 -20h-671l-20 20v99l20 20h443v7q0 42 -6.5 73t-24.5 51.5t-49.5 30t-81.5 9.5h-198q-20 0 -27.5 11.5t-7.5 28.5v27q0 14 4.5 25.5t18.5 25.5l304 316q19 19 47 19t47 -19.5t19 -47.5q0 -12 -4.5 -24.5
t-15.5 -23.5z" />
    <glyph glyph-name="kirsehini" unicode="&#x649;" horiz-adv-x="329" arabic-form="initial" 
d="M-20 21v98l20 20h55q50 0 70.5 22.5t20.5 73.5v122q0 29 21.5 50t51.5 21q29 0 49.5 -21t20.5 -50v-150q0 -59 -25 -99t-62 -64t-78 -34t-73 -10h-51z" />
    <glyph glyph-name="kirsehmedi" unicode="&#x649;" horiz-adv-x="434" arabic-form="medial" 
d="M145 357q0 29 21 50t51 21q29 0 50 -21t21 -50v-122q0 -24 11.5 -42t31.5 -30t46.5 -18t56.5 -6l20 -20v-99l-20 -20q-85 0 -138.5 22t-78.5 73q-28 -54 -80 -74.5t-137 -20.5l-20 20v99l20 20q30 0 56.5 6t46 18t31 30t11.5 42v122z" />
    <glyph glyph-name="alefma2sourafina" unicode="&#x6cc;" horiz-adv-x="1138" arabic-form="final" 
d="M44 212q0 29 21 50t51 21q29 0 50 -21t21 -50v-79q0 -29 7.5 -54.5t26 -44t50 -29.5t78.5 -11h266q78 0 78 35q0 7 -3.5 15.5t-8.5 19.5l-69 142q-16 33 -16 64q0 28 10.5 56t32.5 50.5t56.5 37t81.5 14.5q42 0 73.5 -10.5t54.5 -28.5t40.5 -42t31.5 -51l43 -79
q21 -41 41 -59.5t52 -18.5h25l20 -31v-77l-20 -31h-38q-66 0 -110.5 36.5t-79.5 103.5l-37 66q-22 43 -41.5 63t-44.5 20q-21 0 -33 -12t-12 -26q0 -8 3.5 -18.5t9 -22l11 -23t10.5 -20.5l38 -73q13 -24 20.5 -48.5t7.5 -47.5q0 -35 -18 -61.5t-47 -44.5t-66.5 -27.5
t-77.5 -9.5h-286q-84 0 -142 26.5t-94 67t-51.5 89.5t-15.5 95v79z" />
    <glyph glyph-name="yaini" unicode="&#x6cc;" horiz-adv-x="489" arabic-form="initial" 
d="M-20 21v98l20 20h206q50 0 70.5 22.5t20.5 73.5v122q0 29 21.5 50t51.5 21q29 0 49.5 -21t20.5 -50v-150q0 -59 -25 -99t-62 -64t-78 -34t-73 -10h-202zM27 -166q0 16 6.5 31t18 26.5t26 18t31.5 6.5q16 0 31 -6.5t26.5 -18t18 -26.5t6.5 -31q0 -33 -24.5 -57.5
t-57.5 -24.5q-17 0 -31.5 6.5t-26 18t-18 26t-6.5 31.5zM224 -166q0 16 6.5 31t18 26.5t26 18t31.5 6.5q16 0 31 -6.5t26.5 -18t18 -26.5t6.5 -31q0 -17 -6.5 -31.5t-18 -26t-26.5 -18t-31 -6.5q-17 0 -31.5 6.5t-26 18t-18 26t-6.5 31.5z" />
    <glyph glyph-name="yamedi" unicode="&#x6cc;" horiz-adv-x="434" arabic-form="medial" 
d="M145 357q0 29 21 50t51 21q29 0 50 -21t21 -50v-122q0 -24 11.5 -42t31.5 -30t46.5 -18t56.5 -6l20 -20v-99l-20 -20q-85 0 -138.5 22t-78.5 73q-28 -54 -80 -74.5t-137 -20.5l-20 20v99l20 20q30 0 56.5 6t46 18t31 30t11.5 42v122zM37 -166q0 16 6.5 31t18 26.5t26 18
t31.5 6.5q16 0 31 -6.5t26.5 -18t18 -26.5t6.5 -31q0 -33 -24.5 -57.5t-57.5 -24.5q-17 0 -31.5 6.5t-26 18t-18 26t-6.5 31.5zM234 -166q0 16 6.5 31t18 26.5t26 18t31.5 6.5q16 0 31 -6.5t26.5 -18t18 -26.5t6.5 -31q0 -17 -6.5 -31.5t-18 -26t-26.5 -18t-31 -6.5
q-17 0 -31.5 6.5t-26 18t-18 26t-6.5 31.5z" />
    <glyph glyph-name="shaddehkasra" unicode="&#xfc62;" arabic-form="isolated" 
d="M84 748q-12 -5 -24 1t-17 19q-5 12 0.5 23t18.5 16l163 60q12 5 24 -0.5t17 -18.5q4 -12 -1.5 -23.5t-17.5 -15.5zM294 992q0 -50 -24 -69.5t-58 -19.5q-37 0 -56 24q-20 -23 -56 -23q-34 0 -58 19.5t-24 68.5v41q0 11 8 18.5t19 7.5t19 -7.5t8 -18.5v-37q0 -14 4 -27
t24 -13q17 0 23 13t6 27v37q0 11 8 18.5t19 7.5t19 -7.5t8 -18.5v-37q0 -14 4.5 -27t24.5 -13q17 0 22.5 13t5.5 27v37q0 11 8 18.5t19 7.5t19 -7.5t8 -18.5v-41z" />
    <glyph glyph-name="alefmaddaabovefina" unicode="&#x622;" horiz-adv-x="356" arabic-form="final" 
d="M64 684q0 29 21 50t50 21q30 0 51 -21t21 -50v-449q0 -51 20.5 -73.5t70.5 -22.5h56l20 -20v-98l-20 -21h-52q-32 0 -73 10t-78 34t-62 64t-25 99v477v0zM309 790q0 -13 -8.5 -21.5t-21.5 -8.5t-22 9t-9 23q0 20 -7.5 27t-20.5 7q-14 0 -30 -7.5l-34 -16t-38 -16
t-42 -7.5q-41 0 -64.5 25t-23.5 63v8q0 14 8.5 22.5t21.5 8.5t22 -8.5t9 -22.5q0 -35 25 -35q13 0 30 7.5l36.5 16t40.5 16t42 7.5q35 0 60.5 -23.5t25.5 -64.5v-9v0z" />
    <glyph glyph-name="alefhamzaabovefina" unicode="&#x623;" horiz-adv-x="355" arabic-form="final" 
d="M65 684q0 29 21 50t50 21q30 0 51 -21t21 -50v-449q0 -51 20.5 -73.5t70.5 -22.5h56l20 -20v-98l-20 -21h-52q-32 0 -73 10t-78 34t-62 64t-25 99v477v0zM194 921q-17 12 -36 12q-17 0 -28 -11t-11 -28t11 -28.5t28 -11.5h54q16 0 24 -10t8 -20q0 -12 -8 -21.5t-24 -9.5
h-158q-14 0 -22.5 9.5t-8.5 21.5q0 10 8.5 20t22.5 10h17q-9 11 -11 23t-2 20q0 41 28.5 68t70.5 27q20 0 39 -7t33 -21q10 -10 10 -21q0 -14 -9 -21t-20 -7q-9 0 -16 6z" />
    <glyph glyph-name="wawhamzafina" unicode="&#x624;" horiz-adv-x="610" arabic-form="final" 
d="M165 -250q-29 0 -50 19t-21 48q0 30 21 51t50 21h112q21 0 40 8t33.5 22.5t22.5 33.5t8 41v6h-103q-54 0 -99.5 18.5t-78.5 50.5t-51.5 76.5t-18.5 95.5t19.5 95.5t53 78t79 53t96.5 19.5t95.5 -19.5t78 -53t53 -78t19.5 -95.5v-102h86l20 -31v-77l-20 -31h-86v-6
q0 -51 -19.5 -95.5t-53 -77.5t-78 -52t-95.5 -19h-113zM381 139v101q0 21 -8 40.5t-22.5 34.5t-33.5 24t-40 9t-40.5 -9t-33.5 -24t-22.5 -34.5t-8.5 -40.5q0 -43 29 -72t76 -29h104zM384.994 586.431q-21.2305 15.0146 -44.959 15.0146q-21.2305 0 -34.9668 -13.7637
q-13.7373 -13.7637 -13.7373 -35.0361q0 -21.2715 13.7373 -35.6611q13.7363 -14.3896 34.9668 -14.3896h67.4375q19.9814 0 29.9727 -12.5127q9.99023 -12.5127 9.99023 -25.0254q0 -15.0156 -9.99023 -26.9033q-9.99121 -11.8867 -29.9727 -11.8867h-197.316
q-17.4844 0 -28.0986 11.8867q-10.6152 11.8877 -10.6152 26.9033q0 12.5127 10.6152 25.0254q10.6143 12.5127 28.0986 12.5127h21.2305q-11.2402 13.7637 -13.7373 28.7793q-2.49805 15.0156 -2.49805 25.0254q0 51.3027 35.5918 85.0869q35.5918 33.7852 88.0439 33.7852
q24.9766 0 48.7041 -8.75879q23.7285 -8.75879 41.2119 -26.2773q12.4883 -12.5127 12.4883 -26.2764q0 -17.5186 -11.2393 -26.2773t-24.9766 -8.75879q-11.2402 0 -19.9814 7.50781z" />
    <glyph glyph-name="alefhamzabelowfina" unicode="&#x625;" horiz-adv-x="355" arabic-form="final" 
d="M65 684q0 29 21 50t50 21q30 0 51 -21t21 -50v-449q0 -51 20.5 -73.5t70.5 -22.5h56l20 -20v-98l-20 -21h-52q-32 0 -73 10t-78 34t-62 64t-25 99v477v0zM213 -112q-17 12 -36 12q-17 0 -28 -11t-11 -28t11 -28.5t28 -11.5h54q16 0 24 -10t8 -20q0 -12 -8 -21.5t-24 -9.5
h-158q-14 0 -22.5 9.5t-8.5 21.5q0 10 8.5 20t22.5 10h17q-9 11 -11 23t-2 20q0 41 28.5 68t70.5 27q20 0 39 -7t33 -21q10 -10 10 -21q0 -14 -9 -21t-20 -7q-9 0 -16 6z" />
    <glyph glyph-name="hamzakirsehfina" unicode="&#x626;" horiz-adv-x="1138" arabic-form="final" 
d="M44 212q0 29 21 50t51 21q29 0 50 -21t21 -50v-79q0 -29 7.5 -54.5t26 -44t50 -29.5t78.5 -11h266q78 0 78 35q0 7 -3.5 15.5t-8.5 19.5l-69 142q-16 33 -16 64q0 28 10.5 56t32.5 50.5t56.5 37t81.5 14.5q42 0 73.5 -10.5t54.5 -28.5t40.5 -42t31.5 -51l43 -79
q21 -41 41 -59.5t52 -18.5h25l20 -31v-77l-20 -31h-38q-66 0 -110.5 36.5t-79.5 103.5l-37 66q-22 43 -41.5 63t-44.5 20q-21 0 -33 -12t-12 -26q0 -8 3.5 -18.5t9 -22l11 -23t10.5 -20.5l38 -73q13 -24 20.5 -48.5t7.5 -47.5q0 -35 -18 -61.5t-47 -44.5t-66.5 -27.5
t-77.5 -9.5h-286q-84 0 -142 26.5t-94 67t-51.5 89.5t-15.5 95v79zM251.994 325.431q-21.2305 15.0146 -44.959 15.0146q-21.2305 0 -34.9668 -13.7637q-13.7373 -13.7637 -13.7373 -35.0361q0 -21.2715 13.7373 -35.6611q13.7363 -14.3896 34.9668 -14.3896h67.4375
q19.9814 0 29.9727 -12.5127q9.99023 -12.5127 9.99023 -25.0254q0 -15.0156 -9.99023 -26.9033q-9.99121 -11.8867 -29.9727 -11.8867h-197.316q-17.4844 0 -28.0986 11.8867q-10.6152 11.8877 -10.6152 26.9033q0 12.5127 10.6152 25.0254
q10.6143 12.5127 28.0986 12.5127h21.2305q-11.2402 13.7637 -13.7373 28.7793q-2.49805 15.0156 -2.49805 25.0254q0 51.3027 35.5918 85.0869q35.5918 33.7852 88.0439 33.7852q24.9766 0 48.7041 -8.75879q23.7285 -8.75879 41.2119 -26.2773
q12.4883 -12.5127 12.4883 -26.2764q0 -17.5186 -11.2393 -26.2773t-24.9766 -8.75879q-11.2402 0 -19.9814 7.50781z" />
    <glyph glyph-name="hamzakirsehini" unicode="&#x626;" horiz-adv-x="329" arabic-form="initial" 
d="M-20 21v98l20 20h55q50 0 70.5 22.5t20.5 73.5v122q0 29 21.5 50t51.5 21q29 0 49.5 -21t20.5 -50v-150q0 -59 -25 -99t-62 -64t-78 -34t-73 -10h-51zM204.994 533.431q-21.2305 15.0146 -44.959 15.0146q-21.2305 0 -34.9668 -13.7637
q-13.7373 -13.7637 -13.7373 -35.0361q0 -21.2715 13.7373 -35.6611q13.7363 -14.3896 34.9668 -14.3896h67.4375q19.9814 0 29.9727 -12.5127q9.99023 -12.5127 9.99023 -25.0254q0 -15.0156 -9.99023 -26.9033q-9.99121 -11.8867 -29.9727 -11.8867h-197.316
q-17.4844 0 -28.0986 11.8867q-10.6152 11.8877 -10.6152 26.9033q0 12.5127 10.6152 25.0254q10.6143 12.5127 28.0986 12.5127h21.2305q-11.2402 13.7637 -13.7373 28.7793q-2.49805 15.0156 -2.49805 25.0254q0 51.3027 35.5918 85.0869q35.5918 33.7852 88.0439 33.7852
q24.9766 0 48.7041 -8.75879q23.7285 -8.75879 41.2119 -26.2773q12.4883 -12.5127 12.4883 -26.2764q0 -17.5186 -11.2393 -26.2773t-24.9766 -8.75879q-11.2402 0 -19.9814 7.50781z" />
    <glyph glyph-name="hamzakirsehmedi" unicode="&#x626;" horiz-adv-x="434" arabic-form="medial" 
d="M145 357q0 29 21 50t51 21q29 0 50 -21t21 -50v-122q0 -24 11.5 -42t31.5 -30t46.5 -18t56.5 -6l20 -20v-99l-20 -20q-85 0 -138.5 22t-78.5 73q-28 -54 -80 -74.5t-137 -20.5l-20 20v99l20 20q30 0 56.5 6t46 18t31 30t11.5 42v122zM279.994 533.431
q-21.2305 15.0146 -44.959 15.0146q-21.2305 0 -34.9668 -13.7637q-13.7373 -13.7637 -13.7373 -35.0361q0 -21.2715 13.7373 -35.6611q13.7363 -14.3896 34.9668 -14.3896h67.4375q19.9814 0 29.9727 -12.5127q9.99023 -12.5127 9.99023 -25.0254
q0 -15.0156 -9.99023 -26.9033q-9.99121 -11.8867 -29.9727 -11.8867h-197.316q-17.4844 0 -28.0986 11.8867q-10.6152 11.8877 -10.6152 26.9033q0 12.5127 10.6152 25.0254q10.6143 12.5127 28.0986 12.5127h21.2305q-11.2402 13.7637 -13.7373 28.7793
q-2.49805 15.0156 -2.49805 25.0254q0 51.3027 35.5918 85.0869q35.5918 33.7852 88.0439 33.7852q24.9766 0 48.7041 -8.75879q23.7285 -8.75879 41.2119 -26.2773q12.4883 -12.5127 12.4883 -26.2764q0 -17.5186 -11.2393 -26.2773t-24.9766 -8.75879
q-11.2402 0 -19.9814 7.50781z" />
    <glyph glyph-name="aleffina" unicode="&#x627;" horiz-adv-x="355" arabic-form="final" 
d="M65 684q0 29 21 50t50 21q30 0 51 -21t21 -50v-449q0 -51 20.5 -73.5t70.5 -22.5h56l20 -20v-98l-20 -21h-52q-32 0 -73 10t-78 34t-62 64t-25 99v477v0z" />
    <glyph glyph-name="behfina" unicode="&#x628;" horiz-adv-x="1039" arabic-form="final" 
d="M757 357q0 29 21 50t51 21q29 0 50 -21t21 -50v-126q1 -51 25 -71.5t73 -20.5h41l20 -20v-99l-20 -20h-41q-26 0 -51.5 6t-49 18t-42 29t-29.5 38q-27 -36 -81.5 -63.5t-135.5 -27.5h-267q-75 0 -131.5 20.5t-94.5 57.5t-57 89.5t-19 115.5v74q0 29 21 50t51 21
q29 0 50 -21t21 -50v-38q0 -42 6 -75.5t23 -56.5t49 -35.5t83 -12.5h263q66 0 108 32.5t42 109.5v76zM421 -165q0 16 6.5 31t18 26.5t26 18t31.5 6.5q16 0 31 -6.5t26.5 -18t18 -26.5t6.5 -31q0 -17 -6.5 -31.5t-18 -26t-26.5 -18t-31 -6.5q-17 0 -31.5 6.5t-26 18t-18 26
t-6.5 31.5z" />
    <glyph glyph-name="behini" unicode="&#x628;" horiz-adv-x="329" arabic-form="initial" 
d="M-20 21v98l20 20h55q50 0 70.5 22.5t20.5 73.5v122q0 29 21.5 50t51.5 21q29 0 49.5 -21t20.5 -50v-150q0 -59 -25 -99t-62 -64t-78 -34t-73 -10h-51zM36 -165q0 16 6.5 31t18 26.5t26 18t31.5 6.5q16 0 31 -6.5t26.5 -18t18 -26.5t6.5 -31q0 -17 -6.5 -31.5t-18 -26
t-26.5 -18t-31 -6.5q-17 0 -31.5 6.5t-26 18t-18 26t-6.5 31.5z" />
    <glyph glyph-name="behmedi" unicode="&#x628;" horiz-adv-x="434" arabic-form="medial" 
d="M145 357q0 29 21 50t51 21q29 0 50 -21t21 -50v-122q0 -24 11.5 -42t31.5 -30t46.5 -18t56.5 -6l20 -20v-99l-20 -20q-85 0 -138.5 22t-78.5 73q-28 -54 -80 -74.5t-137 -20.5l-20 20v99l20 20q30 0 56.5 6t46 18t31 30t11.5 42v122zM136 -165q0 16 6.5 31t18 26.5t26 18
t31.5 6.5q16 0 31 -6.5t26.5 -18t18 -26.5t6.5 -31q0 -17 -6.5 -31.5t-18 -26t-26.5 -18t-31 -6.5q-17 0 -31.5 6.5t-26 18t-18 26t-6.5 31.5z" />
    <glyph glyph-name="tehmarboutafina" unicode="&#x629;" horiz-adv-x="679" arabic-form="final" 
d="M390 82h-103q-54 0 -99.5 18.5t-78.5 50.5t-51.5 76.5t-18.5 95.5t19.5 95.5t53 78t79 53t96.5 19.5t95.5 -19.5t78 -53t53 -78t19.5 -95.5v-102v-139h-143zM390 221v101q0 21 -8 40.5t-22.5 34.5t-33.5 24t-40 9t-40.5 -9t-33.5 -24t-22.5 -34.5t-8.5 -40.5
q0 -43 29 -72t76 -29h104zM679 0h-51q-32 0 -73 10t-78 34t-62 64t-25 99v87l143 -7v-52q0 -51 20.5 -73.5t70.5 -22.5h55l20 -20v-98zM117 698q0 16 6.5 31t18 26.5t26 18t31.5 6.5q16 0 31 -6.5t26.5 -18t18 -26.5t6.5 -31q0 -33 -24.5 -57.5t-57.5 -24.5q-17 0 -31.5 6.5
t-26 18t-18 26t-6.5 31.5zM314 698q0 16 6.5 31t18 26.5t26 18t31.5 6.5q16 0 31 -6.5t26.5 -18t18 -26.5t6.5 -31q0 -17 -6.5 -31.5t-18 -26t-26.5 -18t-31 -6.5q-17 0 -31.5 6.5t-26 18t-18 26t-6.5 31.5z" />
    <glyph glyph-name="tafina" unicode="&#x62a;" horiz-adv-x="1039" arabic-form="final" 
d="M757 357q0 29 21 50t51 21q29 0 50 -21t21 -50v-126q1 -51 25 -71.5t73 -20.5h41l20 -20v-99l-20 -20h-41q-26 0 -51.5 6t-49 18t-42 29t-29.5 38q-27 -36 -81.5 -63.5t-135.5 -27.5h-267q-75 0 -131.5 20.5t-94.5 57.5t-57 89.5t-19 115.5v74q0 29 21 50t51 21
q29 0 50 -21t21 -50v-38q0 -42 6 -75.5t23 -56.5t49 -35.5t83 -12.5h263q66 0 108 32.5t42 109.5v76zM293 621q0 16 6.5 31t18 26.5t26 18t31.5 6.5q16 0 31 -6.5t26.5 -18t18 -26.5t6.5 -31q0 -33 -24.5 -57.5t-57.5 -24.5q-17 0 -31.5 6.5t-26 18t-18 26t-6.5 31.5z
M490 621q0 16 6.5 31t18 26.5t26 18t31.5 6.5q16 0 31 -6.5t26.5 -18t18 -26.5t6.5 -31q0 -17 -6.5 -31.5t-18 -26t-26.5 -18t-31 -6.5q-17 0 -31.5 6.5t-26 18t-18 26t-6.5 31.5z" />
    <glyph glyph-name="taini" unicode="&#x62a;" horiz-adv-x="415" arabic-form="initial" 
d="M-20 21v98l20 20h140q50 0 70.5 22.5t20.5 73.5v122q0 29 21.5 50t51.5 21q29 0 49.5 -21t20.5 -50v-150q0 -59 -25 -99t-62 -64t-78 -34t-73 -10h-136zM14 621q0 16 6.5 31t18 26.5t26 18t31.5 6.5q16 0 31 -6.5t26.5 -18t18 -26.5t6.5 -31q0 -17 -6.5 -31.5t-18 -26
t-26.5 -18t-31 -6.5q-17 0 -31.5 6.5t-26 18t-18 26t-6.5 31.5zM211 621q0 16 6.5 31t18 26.5t26 18t31.5 6.5q16 0 31 -6.5t26.5 -18t18 -26.5t6.5 -31q0 -17 -6.5 -31.5t-18 -26t-26.5 -18t-31 -6.5q-17 0 -31.5 6.5t-26 18t-18 26t-6.5 31.5z" />
    <glyph glyph-name="tamedi" unicode="&#x62a;" horiz-adv-x="434" arabic-form="medial" 
d="M145 357q0 29 21 50t51 21q29 0 50 -21t21 -50v-122q0 -24 11.5 -42t31.5 -30t46.5 -18t56.5 -6l20 -20v-99l-20 -20q-85 0 -138.5 22t-78.5 73q-28 -54 -80 -74.5t-137 -20.5l-20 20v99l20 20q30 0 56.5 6t46 18t31 30t11.5 42v122zM39 621q0 16 6.5 31t18 26.5t26 18
t31.5 6.5q16 0 31 -6.5t26.5 -18t18 -26.5t6.5 -31q0 -33 -24.5 -57.5t-57.5 -24.5q-17 0 -31.5 6.5t-26 18t-18 26t-6.5 31.5zM236 621q0 16 6.5 31t18 26.5t26 18t31.5 6.5q16 0 31 -6.5t26.5 -18t18 -26.5t6.5 -31q0 -17 -6.5 -31.5t-18 -26t-26.5 -18t-31 -6.5
q-17 0 -31.5 6.5t-26 18t-18 26t-6.5 31.5z" />
    <glyph glyph-name="thafina" unicode="&#x62b;" horiz-adv-x="1039" arabic-form="final" 
d="M757 357q0 29 21 50t51 21q29 0 50 -21t21 -50v-126q1 -51 25 -71.5t73 -20.5h41l20 -20v-99l-20 -20h-41q-26 0 -51.5 6t-49 18t-42 29t-29.5 38q-27 -36 -81.5 -63.5t-135.5 -27.5h-267q-75 0 -131.5 20.5t-94.5 57.5t-57 89.5t-19 115.5v74q0 29 21 50t51 21
q29 0 50 -21t21 -50v-38q0 -42 6 -75.5t23 -56.5t49 -35.5t83 -12.5h263q66 0 108 32.5t42 109.5v76zM381 782q0 16 6.5 31t18 26.5t26 18t31.5 6.5q16 0 31 -6.5t26.5 -18t18 -26.5t6.5 -31q0 -17 -6.5 -31.5t-18 -26t-26.5 -18t-31 -6.5q-17 0 -31.5 6.5t-26 18t-18 26
t-6.5 31.5zM283 620q0 16 6.5 31t18 26.5t26 18t31.5 6.5q16 0 31 -6.5t26.5 -18t18 -26.5t6.5 -31q0 -17 -6.5 -31.5t-18 -26t-26.5 -18t-31 -6.5q-17 0 -31.5 6.5t-26 18t-18 26t-6.5 31.5zM480 620q0 16 6.5 31t18 26.5t26 18t31.5 6.5q16 0 31 -6.5t26.5 -18t18 -26.5
t6.5 -31q0 -17 -6.5 -31.5t-18 -26t-26.5 -18t-31 -6.5q-17 0 -31.5 6.5t-26 18t-18 26t-6.5 31.5z" />
    <glyph glyph-name="thaini" unicode="&#x62b;" horiz-adv-x="414" arabic-form="initial" 
d="M-20 21v98l20 20h140q50 0 70.5 22.5t20.5 73.5v122q0 29 21.5 50t51.5 21q29 0 49.5 -21t20.5 -50v-150q0 -59 -25 -99t-62 -64t-78 -34t-73 -10h-136zM105 782q0 16 6.5 31t18 26.5t26 18t31.5 6.5q16 0 31 -6.5t26.5 -18t18 -26.5t6.5 -31q0 -17 -6.5 -31.5t-18 -26
t-26.5 -18t-31 -6.5q-17 0 -31.5 6.5t-26 18t-18 26t-6.5 31.5zM7 620q0 16 6.5 31t18 26.5t26 18t31.5 6.5q16 0 31 -6.5t26.5 -18t18 -26.5t6.5 -31q0 -17 -6.5 -31.5t-18 -26t-26.5 -18t-31 -6.5q-17 0 -31.5 6.5t-26 18t-18 26t-6.5 31.5zM204 620q0 16 6.5 31t18 26.5
t26 18t31.5 6.5q16 0 31 -6.5t26.5 -18t18 -26.5t6.5 -31q0 -17 -6.5 -31.5t-18 -26t-26.5 -18t-31 -6.5q-17 0 -31.5 6.5t-26 18t-18 26t-6.5 31.5z" />
    <glyph glyph-name="thamedi" unicode="&#x62b;" horiz-adv-x="434" arabic-form="medial" 
d="M145 357q0 29 21 50t51 21q29 0 50 -21t21 -50v-122q0 -24 11.5 -42t31.5 -30t46.5 -18t56.5 -6l20 -20v-99l-20 -20q-85 0 -138.5 22t-78.5 73q-28 -54 -80 -74.5t-137 -20.5l-20 20v99l20 20q30 0 56.5 6t46 18t31 30t11.5 42v122zM132 782q0 16 6.5 31t18 26.5t26 18
t31.5 6.5q16 0 31 -6.5t26.5 -18t18 -26.5t6.5 -31q0 -17 -6.5 -31.5t-18 -26t-26.5 -18t-31 -6.5q-17 0 -31.5 6.5t-26 18t-18 26t-6.5 31.5zM34 620q0 16 6.5 31t18 26.5t26 18t31.5 6.5q16 0 31 -6.5t26.5 -18t18 -26.5t6.5 -31q0 -17 -6.5 -31.5t-18 -26t-26.5 -18
t-31 -6.5q-17 0 -31.5 6.5t-26 18t-18 26t-6.5 31.5zM231 620q0 16 6.5 31t18 26.5t26 18t31.5 6.5q16 0 31 -6.5t26.5 -18t18 -26.5t6.5 -31q0 -17 -6.5 -31.5t-18 -26t-26.5 -18t-31 -6.5q-17 0 -31.5 6.5t-26 18t-18 26t-6.5 31.5z" />
    <glyph glyph-name="jeemfina" unicode="&#x62c;" horiz-adv-x="733" arabic-form="final" 
d="M586 242q0 -31 4.5 -51.5t10.5 -28.5q17 -23 73 -23h59l20 -20v-99l-20 -20h-79q-64 0 -102.5 18t-58.5 53h-191q-49 0 -83.5 -28.5t-34.5 -77.5q0 -23 8.5 -44.5t25 -37.5t40 -25.5t52.5 -9.5q45 0 73 10.5t48 30.5q9 9 21 15t25 6q29 0 48.5 -20t19.5 -46
q0 -17 -5.5 -28.5t-13.5 -19.5q-10 -11 -28 -26t-44 -28.5t-60 -23t-75 -9.5q-63 0 -114 19.5t-88 53t-57 80t-20 100.5t19.5 99.5t52 78t73.5 50.5t85 17h173v105q0 21 -8 40t-21.5 33t-32.5 22t-41 8q-39 0 -61.5 -7.5t-37.5 -16.5q-9 -5 -19 -10t-22 -5q-31 0 -49.5 20.5
t-18.5 46.5q0 14 5.5 27t15.5 22q35 32 77.5 47t99.5 15t104.5 -19t81 -52t52 -77t18.5 -94v-70zM226.416 91.3301q0 12.1953 4.9541 23.6289t13.7197 20.1982q8.76562 8.76562 19.8174 13.7197q11.0518 4.95508 24.0098 4.95508q12.1953 0 23.6279 -4.95508
q11.4336 -4.9541 20.1992 -13.7197q8.76562 -8.76465 13.7197 -20.1982t4.9541 -23.6289q0 -12.957 -4.9541 -24.0088t-13.7197 -19.8174t-20.1992 -13.7197q-11.4326 -4.9541 -23.6279 -4.9541q-12.958 0 -24.0098 4.9541t-19.8174 13.7197t-13.7197 19.8174
t-4.9541 24.0088z" />
    <glyph glyph-name="jeemini" unicode="&#x62c;" horiz-adv-x="593" arabic-form="initial" 
d="M0 0l-20 20v99l20 20h400v66q0 65 -37.5 104t-105.5 39q-28 0 -50.5 -7.5t-42.5 -21.5q-18 -13 -40 -13q-27 0 -46.5 19.5t-19.5 45.5q0 17 7 30.5t18 21.5q37 29 81.5 46.5t102.5 17.5q61 0 112 -20t87.5 -57t56.5 -89t20 -116v-205h-543zM204 -165q0 16 6.5 31t18 26.5
t26 18t31.5 6.5q16 0 31 -6.5t26.5 -18t18 -26.5t6.5 -31q0 -17 -6.5 -31.5t-18 -26t-26.5 -18t-31 -6.5q-17 0 -31.5 6.5t-26 18t-18 26t-6.5 31.5z" />
    <glyph glyph-name="jeemmedi" unicode="&#x62c;" horiz-adv-x="577" arabic-form="medial" 
d="M597 119v-99l-20 -20h-577l-20 20v99l20 20h400v66q0 65 -37.5 104t-105.5 39q-28 0 -50.5 -7.5t-42.5 -21.5q-18 -13 -40 -13q-27 0 -46.5 19.5t-19.5 45.5q0 17 7 30.5t18 21.5q36 29 81 46.5t103 17.5q61 0 112 -20t87.5 -57t56.5 -89t20 -116v-66h34zM214 -165
q0 16 6.5 31t18 26.5t26 18t31.5 6.5q16 0 31 -6.5t26.5 -18t18 -26.5t6.5 -31q0 -17 -6.5 -31.5t-18 -26t-26.5 -18t-31 -6.5q-17 0 -31.5 6.5t-26 18t-18 26t-6.5 31.5z" />
    <glyph glyph-name="haafina" unicode="&#x62d;" horiz-adv-x="733" arabic-form="final" 
d="M586 242q0 -31 4.5 -51.5t10.5 -28.5q17 -23 73 -23h59l20 -20v-99l-20 -20h-79q-64 0 -102.5 18t-58.5 53h-191q-49 0 -83.5 -28.5t-34.5 -77.5q0 -23 8.5 -44.5t25 -37.5t40 -25.5t52.5 -9.5q45 0 73 10.5t48 30.5q9 9 21 15t25 6q29 0 48.5 -20t19.5 -46
q0 -17 -5.5 -28.5t-13.5 -19.5q-10 -11 -28 -26t-44 -28.5t-60 -23t-75 -9.5q-63 0 -114 19.5t-88 53t-57 80t-20 100.5t19.5 99.5t52 78t73.5 50.5t85 17h173v105q0 21 -8 40t-21.5 33t-32.5 22t-41 8q-39 0 -61.5 -7.5t-37.5 -16.5q-9 -5 -19 -10t-22 -5q-31 0 -49.5 20.5
t-18.5 46.5q0 14 5.5 27t15.5 22q35 32 77.5 47t99.5 15t104.5 -19t81 -52t52 -77t18.5 -94v-70z" />
    <glyph glyph-name="haaini" unicode="&#x62d;" horiz-adv-x="593" arabic-form="initial" 
d="M0 0l-20 20v99l20 20h400v66q0 65 -37.5 104t-105.5 39q-28 0 -50.5 -7.5t-42.5 -21.5q-18 -13 -40 -13q-27 0 -46.5 19.5t-19.5 45.5q0 17 7 30.5t18 21.5q37 29 81.5 46.5t102.5 17.5q61 0 112 -20t87.5 -57t56.5 -89t20 -116v-205h-543z" />
    <glyph glyph-name="haamedi" unicode="&#x62d;" horiz-adv-x="577" arabic-form="medial" 
d="M597 119v-99l-20 -20h-577l-20 20v99l20 20h400v66q0 65 -37.5 104t-105.5 39q-28 0 -50.5 -7.5t-42.5 -21.5q-18 -13 -40 -13q-27 0 -46.5 19.5t-19.5 45.5q0 17 7 30.5t18 21.5q36 29 81 46.5t103 17.5q61 0 112 -20t87.5 -57t56.5 -89t20 -116v-66h34z" />
    <glyph glyph-name="khafina" unicode="&#x62e;" horiz-adv-x="733" arabic-form="final" 
d="M586 242q0 -31 4.5 -51.5t10.5 -28.5q17 -23 73 -23h59l20 -20v-99l-20 -20h-79q-64 0 -102.5 18t-58.5 53h-191q-49 0 -83.5 -28.5t-34.5 -77.5q0 -23 8.5 -44.5t25 -37.5t40 -25.5t52.5 -9.5q45 0 73 10.5t48 30.5q9 9 21 15t25 6q29 0 48.5 -20t19.5 -46
q0 -17 -5.5 -28.5t-13.5 -19.5q-10 -11 -28 -26t-44 -28.5t-60 -23t-75 -9.5q-63 0 -114 19.5t-88 53t-57 80t-20 100.5t19.5 99.5t52 78t73.5 50.5t85 17h173v105q0 21 -8 40t-21.5 33t-32.5 22t-41 8q-39 0 -61.5 -7.5t-37.5 -16.5q-9 -5 -19 -10t-22 -5q-31 0 -49.5 20.5
t-18.5 46.5q0 14 5.5 27t15.5 22q35 32 77.5 47t99.5 15t104.5 -19t81 -52t52 -77t18.5 -94v-70zM243 670q0 16 6.5 31t18 26.5t26 18t31.5 6.5q16 0 31 -6.5t26.5 -18t18 -26.5t6.5 -31q0 -17 -6.5 -31.5t-18 -26t-26.5 -18t-31 -6.5q-17 0 -31.5 6.5t-26 18t-18 26
t-6.5 31.5z" />
    <glyph glyph-name="khaini" unicode="&#x62e;" horiz-adv-x="593" arabic-form="initial" 
d="M0 0l-20 20v99l20 20h400v66q0 65 -37.5 104t-105.5 39q-28 0 -50.5 -7.5t-42.5 -21.5q-18 -13 -40 -13q-27 0 -46.5 19.5t-19.5 45.5q0 17 7 30.5t18 21.5q37 29 81.5 46.5t102.5 17.5q61 0 112 -20t87.5 -57t56.5 -89t20 -116v-205h-543zM191 621q0 16 6.5 31t18 26.5
t26 18t31.5 6.5q16 0 31 -6.5t26.5 -18t18 -26.5t6.5 -31q0 -17 -6.5 -31.5t-18 -26t-26.5 -18t-31 -6.5q-17 0 -31.5 6.5t-26 18t-18 26t-6.5 31.5z" />
    <glyph glyph-name="khamedi" unicode="&#x62e;" horiz-adv-x="577" arabic-form="medial" 
d="M597 119v-99l-20 -20h-577l-20 20v99l20 20h400v66q0 65 -37.5 104t-105.5 39q-28 0 -50.5 -7.5t-42.5 -21.5q-18 -13 -40 -13q-27 0 -46.5 19.5t-19.5 45.5q0 17 7 30.5t18 21.5q36 29 81 46.5t103 17.5q61 0 112 -20t87.5 -57t56.5 -89t20 -116v-66h34zM170 621
q0 16 6.5 31t18 26.5t26 18t31.5 6.5q16 0 31 -6.5t26.5 -18t18 -26.5t6.5 -31q0 -17 -6.5 -31.5t-18 -26t-26.5 -18t-31 -6.5q-17 0 -31.5 6.5t-26 18t-18 26t-6.5 31.5z" />
    <glyph glyph-name="dalfina" unicode="&#x62f;" horiz-adv-x="570" arabic-form="final" 
d="M201 349q-29 0 -49 20t-20 49t20 49t49 20q62 0 116.5 -19t95 -54t63.5 -85t23 -112v-78h71l20 -20v-99l-20 -20h-461q-29 0 -49 20t-20 49t20 49.5t49 20.5h247v78q0 34 -12 59t-32.5 41t-49 24t-61.5 8z" />
    <glyph glyph-name="zalfina" unicode="&#x630;" horiz-adv-x="570" arabic-form="final" 
d="M201 349q-29 0 -49 20t-20 49t20 49t49 20q62 0 116.5 -19t95 -54t63.5 -85t23 -112v-78h71l20 -20v-99l-20 -20h-461q-29 0 -49 20t-20 49t20 49.5t49 20.5h247v78q0 34 -12 59t-32.5 41t-49 24t-61.5 8zM170 621q0 16 6.5 31t18 26.5t26 18t31.5 6.5q16 0 31 -6.5
t26.5 -18t18 -26.5t6.5 -31q0 -17 -6.5 -31.5t-18 -26t-26.5 -18t-31 -6.5q-17 0 -31.5 6.5t-26 18t-18 26t-6.5 31.5z" />
    <glyph glyph-name="rafina" unicode="&#x631;" horiz-adv-x="465" arabic-form="final" 
d="M306 -6q0 -51 -19.5 -95.5t-53 -77.5t-78 -52t-95.5 -19h-53q-29 0 -50 21t-21 50q0 30 21 49t50 19h52q21 0 40 8t33.5 22.5t22.5 33.5t8 41v363q0 29 21 50t51 21q29 0 50 -21t21 -50v-147q2 -41 28.5 -56t67.5 -15h63l20 -20v-99l-20 -20h-56q-32 0 -60.5 11t-42.5 28
v-45z" />
    <glyph glyph-name="zafina" unicode="&#x632;" horiz-adv-x="465" arabic-form="final" 
d="M306 -6q0 -51 -19.5 -95.5t-53 -77.5t-78 -52t-95.5 -19h-53q-29 0 -50 21t-21 50q0 30 21 49t50 19h52q21 0 40 8t33.5 22.5t22.5 33.5t8 41v363q0 29 21 50t51 21q29 0 50 -21t21 -50v-147q2 -41 28.5 -56t67.5 -15h63l20 -20v-99l-20 -20h-56q-32 0 -60.5 11t-42.5 28
v-45zM153 621q0 16 6.5 31t18 26.5t26 18t31.5 6.5q16 0 31 -6.5t26.5 -18t18 -26.5t6.5 -31q0 -17 -6.5 -31.5t-18 -26t-26.5 -18t-31 -6.5q-17 0 -31.5 6.5t-26 18t-18 26t-6.5 31.5z" />
    <glyph glyph-name="seenfina" unicode="&#x633;" horiz-adv-x="1442" arabic-form="final" 
d="M43 248q0 29 21 50t51 21q29 0 50 -21t21 -50v-174q0 -39 12 -70.5t33.5 -53.5t51 -34t64.5 -12q34 0 63 12t50 34t33 53.5t12 70.5v283q0 29 21 50t51 21q29 0 50 -21t21 -50v-122q0 -48 26 -72t64 -24t64.5 24t26.5 72v122q0 29 21 50t51 21q29 0 50 -21t21 -50v-122
q0 -48 26.5 -72t64.5 -24t64 24t26 72v122q0 29 21 50t51 21q29 0 50 -21t21 -50v-122q0 -24 11.5 -42t31.5 -30t46.5 -18t56.5 -6l20 -20v-99l-20 -20q-85 0 -138.5 22t-78.5 73q-24 -46 -64.5 -70.5t-95.5 -24.5q-49 0 -94.5 24.5t-68.5 70.5q-26 -46 -64 -70.5t-97 -24.5
q-73 0 -106 45q-5 -64 -25.5 -115.5t-57 -88t-88.5 -56t-119 -19.5q-73 0 -129 21.5t-94.5 61t-58.5 96t-20 126.5v177z" />
    <glyph glyph-name="seenini" unicode="&#x633;" horiz-adv-x="977" arabic-form="initial" 
d="M706 0q-49 0 -94.5 24.5t-68.5 70.5q-26 -46 -65 -70.5t-101 -24.5q-56 0 -96 24.5t-65 70.5q-25 -51 -79.5 -73t-136.5 -22l-20 20v99l20 20q30 0 56.5 6t46.5 18t31.5 30.5t11.5 42.5v121q0 29 21 50t50 21q30 0 51 -21t21 -50v-122q0 -48 26 -72t64 -24t64.5 24
t26.5 72v122q0 29 21 50t51 21q29 0 50 -21t21 -50v-122q0 -48 26.5 -72t64.5 -24t64 24t26 72v122q0 29 21 50t51 21q29 0 50 -21t21 -50v-121q0 -111 -59.5 -173.5t-171.5 -62.5z" />
    <glyph glyph-name="seenmedi" unicode="&#x633;" horiz-adv-x="1083" arabic-form="medial" 
d="M377 0q-56 0 -96 24.5t-65 70.5q-25 -51 -79.5 -73t-136.5 -22l-20 20v99l20 20q30 0 56.5 6t46.5 18t31.5 30t11.5 42v122q0 29 21 50t50 21q30 0 51 -21t21 -50v-122q0 -48 26 -72t64 -24t64.5 24t26.5 72v122q0 29 21 50t51 21q29 0 50 -21t21 -50v-122
q0 -48 26.5 -72t64.5 -24t64 24t26 72v122q0 29 21 50t51 21q29 0 50 -21t21 -50v-122q0 -24 11.5 -42t31.5 -30t46.5 -18t56.5 -6l20 -20v-99l-20 -20q-85 0 -138.5 22t-78.5 73q-24 -46 -64.5 -70.5t-95.5 -24.5q-49 0 -94.5 24.5t-68.5 70.5q-26 -46 -65 -70.5
t-101 -24.5z" />
    <glyph glyph-name="sheenfina" unicode="&#x634;" horiz-adv-x="1442" arabic-form="final" 
d="M43 248q0 29 21 50t51 21q29 0 50 -21t21 -50v-174q0 -39 12 -70.5t33.5 -53.5t51 -34t64.5 -12q34 0 63 12t50 34t33 53.5t12 70.5v283q0 29 21 50t51 21q29 0 50 -21t21 -50v-122q0 -48 26 -72t64 -24t64.5 24t26.5 72v122q0 29 21 50t51 21q29 0 50 -21t21 -50v-122
q0 -48 26.5 -72t64.5 -24t64 24t26 72v122q0 29 21 50t51 21q29 0 50 -21t21 -50v-122q0 -24 11.5 -42t31.5 -30t46.5 -18t56.5 -6l20 -20v-99l-20 -20q-85 0 -138.5 22t-78.5 73q-24 -46 -64.5 -70.5t-95.5 -24.5q-49 0 -94.5 24.5t-68.5 70.5q-26 -46 -64 -70.5t-97 -24.5
q-73 0 -106 45q-5 -64 -25.5 -115.5t-57 -88t-88.5 -56t-119 -19.5q-73 0 -129 21.5t-94.5 61t-58.5 96t-20 126.5v177zM818 782q0 16 6.5 31t18 26.5t26 18t31.5 6.5q16 0 31 -6.5t26.5 -18t18 -26.5t6.5 -31q0 -17 -6.5 -31.5t-18 -26t-26.5 -18t-31 -6.5q-17 0 -31.5 6.5
t-26 18t-18 26t-6.5 31.5zM720 620q0 16 6.5 31t18 26.5t26 18t31.5 6.5q16 0 31 -6.5t26.5 -18t18 -26.5t6.5 -31q0 -17 -6.5 -31.5t-18 -26t-26.5 -18t-31 -6.5q-17 0 -31.5 6.5t-26 18t-18 26t-6.5 31.5zM917 620q0 16 6.5 31t18 26.5t26 18t31.5 6.5q16 0 31 -6.5
t26.5 -18t18 -26.5t6.5 -31q0 -17 -6.5 -31.5t-18 -26t-26.5 -18t-31 -6.5q-17 0 -31.5 6.5t-26 18t-18 26t-6.5 31.5z" />
    <glyph glyph-name="sheenini" unicode="&#x634;" horiz-adv-x="977" arabic-form="initial" 
d="M706 0q-49 0 -94.5 24.5t-68.5 70.5q-26 -46 -65 -70.5t-101 -24.5q-56 0 -96 24.5t-65 70.5q-25 -51 -79.5 -73t-136.5 -22l-20 20v99l20 20q30 0 56.5 6t46.5 18t31.5 30.5t11.5 42.5v121q0 29 21 50t50 21q30 0 51 -21t21 -50v-122q0 -48 26 -72t64 -24t64.5 24
t26.5 72v122q0 29 21 50t51 21q29 0 50 -21t21 -50v-122q0 -48 26.5 -72t64.5 -24t64 24t26 72v122q0 29 21 50t51 21q29 0 50 -21t21 -50v-121q0 -111 -59.5 -173.5t-171.5 -62.5zM460 782q0 16 6.5 31t18 26.5t26 18t31.5 6.5q16 0 31 -6.5t26.5 -18t18 -26.5t6.5 -31
q0 -17 -6.5 -31.5t-18 -26t-26.5 -18t-31 -6.5q-17 0 -31.5 6.5t-26 18t-18 26t-6.5 31.5zM362 620q0 16 6.5 31t18 26.5t26 18t31.5 6.5q16 0 31 -6.5t26.5 -18t18 -26.5t6.5 -31q0 -17 -6.5 -31.5t-18 -26t-26.5 -18t-31 -6.5q-17 0 -31.5 6.5t-26 18t-18 26t-6.5 31.5z
M559 620q0 16 6.5 31t18 26.5t26 18t31.5 6.5q16 0 31 -6.5t26.5 -18t18 -26.5t6.5 -31q0 -17 -6.5 -31.5t-18 -26t-26.5 -18t-31 -6.5q-17 0 -31.5 6.5t-26 18t-18 26t-6.5 31.5z" />
    <glyph glyph-name="sheenmedi" unicode="&#x634;" horiz-adv-x="1083" arabic-form="medial" 
d="M377 0q-56 0 -96 24.5t-65 70.5q-25 -51 -79.5 -73t-136.5 -22l-20 20v99l20 20q30 0 56.5 6t46.5 18t31.5 30t11.5 42v122q0 29 21 50t50 21q30 0 51 -21t21 -50v-122q0 -48 26 -72t64 -24t64.5 24t26.5 72v122q0 29 21 50t51 21q29 0 50 -21t21 -50v-122
q0 -48 26.5 -72t64.5 -24t64 24t26 72v122q0 29 21 50t51 21q29 0 50 -21t21 -50v-122q0 -24 11.5 -42t31.5 -30t46.5 -18t56.5 -6l20 -20v-99l-20 -20q-85 0 -138.5 22t-78.5 73q-24 -46 -64.5 -70.5t-95.5 -24.5q-49 0 -94.5 24.5t-68.5 70.5q-26 -46 -65 -70.5
t-101 -24.5zM464 782q0 16 6.5 31t18 26.5t26 18t31.5 6.5q16 0 31 -6.5t26.5 -18t18 -26.5t6.5 -31q0 -17 -6.5 -31.5t-18 -26t-26.5 -18t-31 -6.5q-17 0 -31.5 6.5t-26 18t-18 26t-6.5 31.5zM366 620q0 16 6.5 31t18 26.5t26 18t31.5 6.5q16 0 31 -6.5t26.5 -18t18 -26.5
t6.5 -31q0 -17 -6.5 -31.5t-18 -26t-26.5 -18t-31 -6.5q-17 0 -31.5 6.5t-26 18t-18 26t-6.5 31.5zM563 620q0 16 6.5 31t18 26.5t26 18t31.5 6.5q16 0 31 -6.5t26.5 -18t18 -26.5t6.5 -31q0 -17 -6.5 -31.5t-18 -26t-26.5 -18t-31 -6.5q-17 0 -31.5 6.5t-26 18t-18 26
t-6.5 31.5z" />
    <glyph glyph-name="sadfina" unicode="&#x635;" horiz-adv-x="1330" arabic-form="final" 
d="M949 487q69 0 118.5 -21t81.5 -55t47 -77t15 -87q0 -31 -8 -61q11 -19 32 -31q17 -10 35.5 -13t35.5 -3h24l20 -20v-99l-20 -20h-24q-49 0 -92 22.5t-65 62.5q-38 -41 -90 -63t-110 -22h-312q-20 -109 -91.5 -171.5t-192.5 -62.5q-73 0 -129 21.5t-94.5 61t-58.5 96
t-20 126.5v177q0 29 21 50t51 21q29 0 50 -21t21 -50v-174q0 -39 12 -70.5t33.5 -53.5t51 -34t64.5 -12q34 0 63 12t50 34t33 53.5t12 70.5v273q0 29 21 50t51 21q29 0 50 -21t21 -50v-43q12 21 37 52t61.5 60t85.5 50t109 21zM903 139q85 0 125 31t40 81q0 25 -9.5 43.5
t-25.5 30.5t-37 17.5t-44 5.5q-68 0 -146 -52.5t-150 -156.5h247z" />
    <glyph glyph-name="sadini" unicode="&#x635;" horiz-adv-x="820" arabic-form="initial" 
d="M521 348q-68 0 -146 -52.5t-150 -156.5h247q85 0 125 31t40 81q0 25 -9.5 43.5t-25.5 30.5t-37 17.5t-44 5.5zM780 247q0 -55 -21.5 -100.5t-58 -78t-84 -50.5t-98.5 -18h-518l-20 20v99l20 20h82v208q0 29 21 50t51 21q29 0 50 -21t21 -50v-43q12 21 37 52t61.5 60
t85.5 50t109 21q69 0 118.5 -21t81.5 -55t47 -77t15 -87z" />
    <glyph glyph-name="sadmedi" unicode="&#x635;" horiz-adv-x="899" arabic-form="medial" 
d="M-20 20v99l20 20h82v208q0 29 21 50t51 21q29 0 50 -21t21 -50v-43q12 21 37 52t61.5 60t85.5 50t109 21q69 0 118.5 -21t81.5 -55t47 -77t15 -87q0 -31 -8 -61q11 -19 32 -31q17 -10 35.5 -13t35.5 -3h24l20 -20v-99l-20 -20h-24q-49 0 -92 22.5t-65 62.5
q-38 -41 -90 -63t-110 -22h-518zM521 348q-68 0 -146 -52.5t-150 -156.5h247q85 0 125 31t40 81q0 25 -9.5 43.5t-25.5 30.5t-37 17.5t-44 5.5z" />
    <glyph glyph-name="dadfina" unicode="&#x636;" horiz-adv-x="1330" arabic-form="final" 
d="M949 487q69 0 118.5 -21t81.5 -55t47 -77t15 -87q0 -31 -8 -61q11 -19 32 -31q17 -10 35.5 -13t35.5 -3h24l20 -20v-99l-20 -20h-24q-49 0 -92 22.5t-65 62.5q-38 -41 -90 -63t-110 -22h-312q-20 -109 -91.5 -171.5t-192.5 -62.5q-73 0 -129 21.5t-94.5 61t-58.5 96
t-20 126.5v177q0 29 21 50t51 21q29 0 50 -21t21 -50v-174q0 -39 12 -70.5t33.5 -53.5t51 -34t64.5 -12q34 0 63 12t50 34t33 53.5t12 70.5v273q0 29 21 50t51 21q29 0 50 -21t21 -50v-43q12 21 37 52t61.5 60t85.5 50t109 21zM903 139q85 0 125 31t40 81q0 25 -9.5 43.5
t-25.5 30.5t-37 17.5t-44 5.5q-68 0 -146 -52.5t-150 -156.5h247zM838 621q0 16 6.5 31t18 26.5t26 18t31.5 6.5q16 0 31 -6.5t26.5 -18t18 -26.5t6.5 -31q0 -17 -6.5 -31.5t-18 -26t-26.5 -18t-31 -6.5q-17 0 -31.5 6.5t-26 18t-18 26t-6.5 31.5z" />
    <glyph glyph-name="dadini" unicode="&#x636;" horiz-adv-x="820" arabic-form="initial" 
d="M521 348q-68 0 -146 -52.5t-150 -156.5h247q85 0 125 31t40 81q0 25 -9.5 43.5t-25.5 30.5t-37 17.5t-44 5.5zM780 247q0 -55 -21.5 -100.5t-58 -78t-84 -50.5t-98.5 -18h-518l-20 20v99l20 20h82v208q0 29 21 50t51 21q29 0 50 -21t21 -50v-43q12 21 37 52t61.5 60
t85.5 50t109 21q69 0 118.5 -21t81.5 -55t47 -77t15 -87zM375 621q0 16 6.5 31t18 26.5t26 18t31.5 6.5q16 0 31 -6.5t26.5 -18t18 -26.5t6.5 -31q0 -17 -6.5 -31.5t-18 -26t-26.5 -18t-31 -6.5q-17 0 -31.5 6.5t-26 18t-18 26t-6.5 31.5z" />
    <glyph glyph-name="dadmedi" unicode="&#x636;" horiz-adv-x="899" arabic-form="medial" 
d="M-20 20v99l20 20h82v208q0 29 21 50t51 21q29 0 50 -21t21 -50v-43q12 21 37 52t61.5 60t85.5 50t109 21q69 0 118.5 -21t81.5 -55t47 -77t15 -87q0 -31 -8 -61q11 -19 32 -31q17 -10 35.5 -13t35.5 -3h24l20 -20v-99l-20 -20h-24q-49 0 -92 22.5t-65 62.5
q-38 -41 -90 -63t-110 -22h-518zM521 348q-68 0 -146 -52.5t-150 -156.5h247q85 0 125 31t40 81q0 25 -9.5 43.5t-25.5 30.5t-37 17.5t-44 5.5zM417 621q0 16 6.5 31t18 26.5t26 18t31.5 6.5q16 0 31 -6.5t26.5 -18t18 -26.5t6.5 -31q0 -17 -6.5 -31.5t-18 -26t-26.5 -18
t-31 -6.5q-17 0 -31.5 6.5t-26 18t-18 26t-6.5 31.5z" />
    <glyph glyph-name="tahfina" unicode="&#x637;" horiz-adv-x="954" arabic-form="final" 
d="M109 0q-29 0 -49 20t-20 49t20 49.5t49 20.5h28v545q0 29 21 50t51 21q29 0 50 -21t21 -50v-380q12 21 37 52t61.5 60t85.5 50t109 21q69 0 118.5 -21t81.5 -55t47 -77t15 -87q0 -31 -8 -61q11 -19 32 -31q17 -10 35.5 -13t35.5 -3h24l20 -20v-99l-20 -20h-24
q-49 0 -92 22.5t-65 62.5q-38 -41 -90 -63t-110 -22h-464zM576 348q-68 0 -146 -52.5t-150 -156.5h247q85 0 125 31t40 81q0 25 -9.5 43.5t-25.5 30.5t-37 17.5t-44 5.5z" />
    <glyph glyph-name="tahini" unicode="&#x637;" horiz-adv-x="808" arabic-form="initial" 
d="M0 139h70v545q0 29 21 50t51 21q29 0 50 -21t21 -50v-380q12 21 37 52t61.5 60t85.5 50t109 21q69 0 118.5 -21t81.5 -55t47 -77t15 -87q0 -55 -21.5 -100.5t-58 -78t-84 -50.5t-98.5 -18h-506l-20 20v99zM509 348q-68 0 -146 -52.5t-150 -156.5h247q85 0 125 31t40 81
q0 25 -9.5 43.5t-25.5 30.5t-37 17.5t-44 5.5z" />
    <glyph glyph-name="tahmedi" unicode="&#x637;" horiz-adv-x="887" arabic-form="medial" 
d="M0 0l-20 20v99l20 20h70v545q0 29 21 50t51 21q29 0 50 -21t21 -50v-380q12 21 37 52t61.5 60t85.5 50t109 21q69 0 118.5 -21t81.5 -55t47 -77t15 -87q0 -31 -8 -61q11 -19 32 -31q17 -10 35.5 -13t35.5 -3h24l20 -20v-99l-20 -20h-24q-49 0 -92 22.5t-65 62.5
q-38 -41 -90 -63t-110 -22h-506zM509 348q-68 0 -146 -52.5t-150 -156.5h247q85 0 125 31t40 81q0 25 -9.5 43.5t-25.5 30.5t-37 17.5t-44 5.5z" />
    <glyph glyph-name="zadfina" unicode="&#x638;" horiz-adv-x="954" arabic-form="final" 
d="M109 0q-29 0 -49 20t-20 49t20 49.5t49 20.5h28v545q0 29 21 50t51 21q29 0 50 -21t21 -50v-380q12 21 37 52t61.5 60t85.5 50t109 21q69 0 118.5 -21t81.5 -55t47 -77t15 -87q0 -31 -8 -61q11 -19 32 -31q17 -10 35.5 -13t35.5 -3h24l20 -20v-99l-20 -20h-24
q-49 0 -92 22.5t-65 62.5q-38 -41 -90 -63t-110 -22h-464zM576 348q-68 0 -146 -52.5t-150 -156.5h247q85 0 125 31t40 81q0 25 -9.5 43.5t-25.5 30.5t-37 17.5t-44 5.5zM465 621q0 16 6.5 31t18 26.5t26 18t31.5 6.5q16 0 31 -6.5t26.5 -18t18 -26.5t6.5 -31
q0 -17 -6.5 -31.5t-18 -26t-26.5 -18t-31 -6.5q-17 0 -31.5 6.5t-26 18t-18 26t-6.5 31.5z" />
    <glyph glyph-name="zadini" unicode="&#x638;" horiz-adv-x="808" arabic-form="initial" 
d="M0 139h70v545q0 29 21 50t51 21q29 0 50 -21t21 -50v-380q12 21 37 52t61.5 60t85.5 50t109 21q69 0 118.5 -21t81.5 -55t47 -77t15 -87q0 -55 -21.5 -100.5t-58 -78t-84 -50.5t-98.5 -18h-506l-20 20v99zM509 348q-68 0 -146 -52.5t-150 -156.5h247q85 0 125 31t40 81
q0 25 -9.5 43.5t-25.5 30.5t-37 17.5t-44 5.5zM368 621q0 16 6.5 31t18 26.5t26 18t31.5 6.5q16 0 31 -6.5t26.5 -18t18 -26.5t6.5 -31q0 -17 -6.5 -31.5t-18 -26t-26.5 -18t-31 -6.5q-17 0 -31.5 6.5t-26 18t-18 26t-6.5 31.5z" />
    <glyph glyph-name="zadmedi" unicode="&#x638;" horiz-adv-x="887" arabic-form="medial" 
d="M0 0l-20 20v99l20 20h70v545q0 29 21 50t51 21q29 0 50 -21t21 -50v-380q12 21 37 52t61.5 60t85.5 50t109 21q69 0 118.5 -21t81.5 -55t47 -77t15 -87q0 -31 -8 -61q11 -19 32 -31q17 -10 35.5 -13t35.5 -3h24l20 -20v-99l-20 -20h-24q-49 0 -92 22.5t-65 62.5
q-38 -41 -90 -63t-110 -22h-506zM509 348q-68 0 -146 -52.5t-150 -156.5h247q85 0 125 31t40 81q0 25 -9.5 43.5t-25.5 30.5t-37 17.5t-44 5.5zM388 621q0 16 6.5 31t18 26.5t26 18t31.5 6.5q16 0 31 -6.5t26.5 -18t18 -26.5t6.5 -31q0 -17 -6.5 -31.5t-18 -26t-26.5 -18
t-31 -6.5q-17 0 -31.5 6.5t-26 18t-18 26t-6.5 31.5z" />
    <glyph glyph-name="aynfina" unicode="&#x639;" horiz-adv-x="704" arabic-form="final" 
d="M312 71q-49 0 -83.5 -28.5t-34.5 -77.5q0 -23 8.5 -44.5t25 -37.5t40 -25.5t52.5 -9.5q45 0 73 10.5t48 30.5q9 9 21 15t25 6q29 0 48.5 -20t19.5 -46q0 -17 -5.5 -28.5t-13.5 -19.5q-10 -11 -28 -26t-44 -28.5t-60 -23t-75 -9.5q-63 0 -114 19.5t-87.5 53t-56.5 80
t-20 100.5q0 44 12.5 82.5t35.5 68.5t55 50t72 27l-103 110q0 62 20.5 109.5t56.5 79.5t85 48.5t107 16.5q55 0 105.5 -15t89 -43.5t61 -69t22.5 -91.5q0 -37 -16.5 -66.5t-43 -52.5t-58.5 -41t-62 -33q11 -2 21.5 -2.5t21.5 -0.5h171l20 -20v-99l-20 -20h-172
q-27 0 -48.5 2t-41 9.5t-38.5 21.5t-43 38h-49zM391 415q-51 0 -87 -22.5t-36 -69.5l122 -123q27 14 52 30t44 32t30 31.5t11 28.5q0 41 -33.5 67t-102.5 26z" />
    <glyph glyph-name="aynini" unicode="&#x639;" horiz-adv-x="589" arabic-form="initial" 
d="M0 0l-20 20v99l20 20h97q-13 22 -21 51t-8 55q0 50 20 94t54.5 77t81 52t100.5 19q115 0 182 -80q8 -9 11.5 -20t3.5 -21q0 -30 -21 -48.5t-45 -18.5q-14 0 -26 6t-23 14q-39 30 -92 30q-25 0 -44.5 -9t-32.5 -23t-19.5 -32t-6.5 -36q0 -17 6.5 -36.5t19.5 -36t32 -27
t45 -10.5h166q32 0 50.5 -22t18.5 -47t-18 -47.5t-51 -22.5h-480z" />
    <glyph glyph-name="aynmidi" unicode="&#x639;" horiz-adv-x="610" arabic-form="medial" 
d="M-20 20v99l20 20h120l-93 94q0 64 20.5 112t56.5 79.5t85 47t107 15.5q55 0 105.5 -15t89 -43t61 -68.5t22.5 -91.5q0 -42 -20 -73.5t-49 -56.5h105l20 -20v-99l-20 -20h-610zM295 349q-56 0 -89.5 -23t-33.5 -70l122 -123l52 30t43.5 30t30 30.5t11.5 32.5
q0 23 -11 40.5t-29.5 29t-43 17.5t-52.5 6z" />
    <glyph glyph-name="ghafina" unicode="&#x63a;" horiz-adv-x="704" arabic-form="final" 
d="M312 71q-49 0 -83.5 -28.5t-34.5 -77.5q0 -23 8.5 -44.5t25 -37.5t40 -25.5t52.5 -9.5q45 0 73 10.5t48 30.5q9 9 21 15t25 6q29 0 48.5 -20t19.5 -46q0 -17 -5.5 -28.5t-13.5 -19.5q-10 -11 -28 -26t-44 -28.5t-60 -23t-75 -9.5q-63 0 -114 19.5t-87.5 53t-56.5 80
t-20 100.5q0 44 12.5 82.5t35.5 68.5t55 50t72 27l-103 110q0 62 20.5 109.5t56.5 79.5t85 48.5t107 16.5q55 0 105.5 -15t89 -43.5t61 -69t22.5 -91.5q0 -37 -16.5 -66.5t-43 -52.5t-58.5 -41t-62 -33q11 -2 21.5 -2.5t21.5 -0.5h171l20 -20v-99l-20 -20h-172
q-27 0 -48.5 2t-41 9.5t-38.5 21.5t-43 38h-49zM391 415q-51 0 -87 -22.5t-36 -69.5l122 -123q27 14 52 30t44 32t30 31.5t11 28.5q0 41 -33.5 67t-102.5 26zM305 712q0 16 6.5 31t18 26.5t26 18t31.5 6.5q16 0 31 -6.5t26.5 -18t18 -26.5t6.5 -31q0 -17 -6.5 -31.5t-18 -26
t-26.5 -18t-31 -6.5q-17 0 -31.5 6.5t-26 18t-18 26t-6.5 31.5z" />
    <glyph glyph-name="ghaini" unicode="&#x63a;" horiz-adv-x="589" arabic-form="initial" 
d="M0 0l-20 20v99l20 20h97q-13 22 -21 51t-8 55q0 50 20 94t54.5 77t81 52t100.5 19q115 0 182 -80q8 -9 11.5 -20t3.5 -21q0 -30 -21 -48.5t-45 -18.5q-14 0 -26 6t-23 14q-39 30 -92 30q-25 0 -44.5 -9t-32.5 -23t-19.5 -32t-6.5 -36q0 -17 6.5 -36.5t19.5 -36t32 -27
t45 -10.5h166q32 0 50.5 -22t18.5 -47t-18 -47.5t-51 -22.5h-480zM213 621q0 16 6.5 31t18 26.5t26 18t31.5 6.5q16 0 31 -6.5t26.5 -18t18 -26.5t6.5 -31q0 -17 -6.5 -31.5t-18 -26t-26.5 -18t-31 -6.5q-17 0 -31.5 6.5t-26 18t-18 26t-6.5 31.5z" />
    <glyph glyph-name="ghamedi" unicode="&#x63a;" horiz-adv-x="610" arabic-form="medial" 
d="M-20 20v99l20 20h120l-93 94q0 64 20.5 112t56.5 79.5t85 47t107 15.5q55 0 105.5 -15t89 -43t61 -68.5t22.5 -91.5q0 -42 -20 -73.5t-49 -56.5h105l20 -20v-99l-20 -20h-610zM295 349q-56 0 -89.5 -23t-33.5 -70l122 -123l52 30t43.5 30t30 30.5t11.5 32.5
q0 23 -11 40.5t-29.5 29t-43 17.5t-52.5 6zM211 621q0 16 6.5 31t18 26.5t26 18t31.5 6.5q16 0 31 -6.5t26.5 -18t18 -26.5t6.5 -31q0 -17 -6.5 -31.5t-18 -26t-26.5 -18t-31 -6.5q-17 0 -31.5 6.5t-26 18t-18 26t-6.5 31.5z" />
    <glyph glyph-name="fafina" unicode="&#x641;" horiz-adv-x="1087" arabic-form="final" 
d="M796 139q22 0 41.5 8.5t34.5 23.5t23.5 34.5t8.5 42.5q0 22 -8.5 42t-23.5 34.5t-34.5 23t-41.5 8.5q-23 0 -43 -8.5t-34.5 -23t-23 -34.5t-8.5 -42q0 -23 8.5 -42.5t23 -34.5t34.5 -23.5t43 -8.5zM585 139q-26 49 -26 109q0 49 18.5 92t51 75t75.5 50.5t92 18.5
t92 -18.5t75 -50.5t50.5 -75t18.5 -92q0 -30 -7 -57.5t-20 -51.5h82l20 -20v-99l-20 -20h-745q-75 0 -131.5 20.5t-94.5 57.5t-57 89.5t-19 115.5v74q0 29 21 50t51 21q29 0 50 -21t21 -50v-38q0 -42 6 -75.5t23 -56.5t49 -35.5t83 -12.5h241zM709 621q0 16 6.5 31t18 26.5
t26 18t31.5 6.5q16 0 31 -6.5t26.5 -18t18 -26.5t6.5 -31q0 -17 -6.5 -31.5t-18 -26t-26.5 -18t-31 -6.5q-17 0 -31.5 6.5t-26 18t-18 26t-6.5 31.5z" />
    <glyph glyph-name="faini" unicode="&#x641;" horiz-adv-x="569" arabic-form="initial" 
d="M57 139q-22 47 -22 102q0 51 19.5 95.5t53 78t79 53t96.5 19.5t95.5 -19.5t78 -53t53 -78t19.5 -95.5t-19.5 -95.5t-53 -76.5t-78 -50.5t-95.5 -18.5h-283l-20 20v99l20 20h57zM282 139q21 0 40 8t33.5 21.5t22.5 32t8 39.5t-8 40.5t-22.5 34.5t-33.5 24t-40 9t-40 -9
t-33.5 -24t-22.5 -34.5t-8 -40.5t8 -39.5t22.5 -32t33.5 -21.5t40 -8zM213 621q0 16 6.5 31t18 26.5t26 18t31.5 6.5q16 0 31 -6.5t26.5 -18t18 -26.5t6.5 -31q0 -17 -6.5 -31.5t-18 -26t-26.5 -18t-31 -6.5q-17 0 -31.5 6.5t-26 18t-18 26t-6.5 31.5z" />
    <glyph glyph-name="famedi" unicode="&#x641;" horiz-adv-x="584" arabic-form="medial" 
d="M0 139h75q-15 23 -23.5 48.5t-8.5 53.5q0 51 19.5 95.5t53 78t79 53t96.5 19.5t95.5 -19.5t77.5 -53t52.5 -78t19.5 -95.5q0 -28 -8.5 -53.5t-22.5 -48.5h79l20 -20v-99l-20 -20h-584l-20 20v99zM186 240q0 -39 25 -67.5t63 -33.5h31q38 5 63.5 33.5t25.5 67.5
q0 21 -8 40.5t-22.5 34.5t-33.5 24t-40 9t-40 -9t-33.5 -24t-22.5 -34.5t-8 -40.5zM199 621q0 16 6.5 31t18 26.5t26 18t31.5 6.5q16 0 31 -6.5t26.5 -18t18 -26.5t6.5 -31q0 -17 -6.5 -31.5t-18 -26t-26.5 -18t-31 -6.5q-17 0 -31.5 6.5t-26 18t-18 26t-6.5 31.5z" />
    <glyph glyph-name="kaaffina" unicode="&#x642;" horiz-adv-x="1087" arabic-form="final" 
d="M796 139q22 0 41.5 8.5t34.5 23.5t23.5 34.5t8.5 42.5q0 22 -8.5 42t-23.5 34.5t-34.5 23t-41.5 8.5q-23 0 -43 -8.5t-34.5 -23t-23 -34.5t-8.5 -42q0 -23 8.5 -42.5t23 -34.5t34.5 -23.5t43 -8.5zM585 139q-26 49 -26 109q0 49 18.5 92t51 75t75.5 50.5t92 18.5
t92 -18.5t75 -50.5t50.5 -75t18.5 -92q0 -30 -7 -57.5t-20 -51.5h82l20 -20v-99l-20 -20h-745q-75 0 -131.5 20.5t-94.5 57.5t-57 89.5t-19 115.5v74q0 29 21 50t51 21q29 0 50 -21t21 -50v-38q0 -42 6 -75.5t23 -56.5t49 -35.5t83 -12.5h241zM610 621q0 16 6.5 31t18 26.5
t26 18t31.5 6.5q16 0 31 -6.5t26.5 -18t18 -26.5t6.5 -31q0 -33 -24.5 -57.5t-57.5 -24.5q-17 0 -31.5 6.5t-26 18t-18 26t-6.5 31.5zM807 621q0 16 6.5 31t18 26.5t26 18t31.5 6.5q16 0 31 -6.5t26.5 -18t18 -26.5t6.5 -31q0 -17 -6.5 -31.5t-18 -26t-26.5 -18t-31 -6.5
q-17 0 -31.5 6.5t-26 18t-18 26t-6.5 31.5z" />
    <glyph glyph-name="kaafini" unicode="&#x642;" horiz-adv-x="569" arabic-form="initial" 
d="M57 139q-22 47 -22 102q0 51 19.5 95.5t53 78t79 53t96.5 19.5t95.5 -19.5t78 -53t53 -78t19.5 -95.5t-19.5 -95.5t-53 -76.5t-78 -50.5t-95.5 -18.5h-283l-20 20v99l20 20h57zM282 139q21 0 40 8t33.5 21.5t22.5 32t8 39.5t-8 40.5t-22.5 34.5t-33.5 24t-40 9t-40 -9
t-33.5 -24t-22.5 -34.5t-8 -40.5t8 -39.5t22.5 -32t33.5 -21.5t40 -8zM117 621q0 16 6.5 31t18 26.5t26 18t31.5 6.5q16 0 31 -6.5t26.5 -18t18 -26.5t6.5 -31q0 -33 -24.5 -57.5t-57.5 -24.5q-17 0 -31.5 6.5t-26 18t-18 26t-6.5 31.5zM314 621q0 16 6.5 31t18 26.5t26 18
t31.5 6.5q16 0 31 -6.5t26.5 -18t18 -26.5t6.5 -31q0 -17 -6.5 -31.5t-18 -26t-26.5 -18t-31 -6.5q-17 0 -31.5 6.5t-26 18t-18 26t-6.5 31.5z" />
    <glyph glyph-name="kaafmedi" unicode="&#x642;" horiz-adv-x="584" arabic-form="medial" 
d="M0 139h75q-15 23 -23.5 48.5t-8.5 53.5q0 51 19.5 95.5t53 78t79 53t96.5 19.5t95.5 -19.5t77.5 -53t52.5 -78t19.5 -95.5q0 -28 -8.5 -53.5t-22.5 -48.5h79l20 -20v-99l-20 -20h-584l-20 20v99zM186 240q0 -39 25 -67.5t63 -33.5h31q38 5 63.5 33.5t25.5 67.5
q0 21 -8 40.5t-22.5 34.5t-33.5 24t-40 9t-40 -9t-33.5 -24t-22.5 -34.5t-8 -40.5zM117 610q0 16 6.5 31t18 26.5t26 18t31.5 6.5q16 0 31 -6.5t26.5 -18t18 -26.5t6.5 -31q0 -33 -24.5 -57.5t-57.5 -24.5q-17 0 -31.5 6.5t-26 18t-18 26t-6.5 31.5zM314 610q0 16 6.5 31
t18 26.5t26 18t31.5 6.5q16 0 31 -6.5t26.5 -18t18 -26.5t6.5 -31q0 -17 -6.5 -31.5t-18 -26t-26.5 -18t-31 -6.5q-17 0 -31.5 6.5t-26 18t-18 26t-6.5 31.5z" />
    <glyph glyph-name="kaffina" unicode="&#x643;" horiz-adv-x="944" arabic-form="final" 
d="M342 0q-77 0 -133.5 20.5t-94 59t-56 92.5t-18.5 120v4q0 29 21 50t51 21q29 0 50 -21t21 -50q0 -43 8.5 -73t27 -48.5t49.5 -27t76 -8.5h199q36 0 59.5 7t37 19.5t19 31t5.5 42.5v445q0 29 21 50t51 21q29 0 50 -21t21 -50v-409q0 -33 4 -58.5t14.5 -43t29 -26
t48.5 -8.5h41l20 -20v-99l-20 -20q-67 0 -121 18.5t-85 74.5q-15 -28 -35 -46t-44 -28.5t-52 -14.5t-59 -4h-206zM494 531q-10 8 -21.5 11.5t-22.5 3.5q-20 0 -34 -14t-14 -34t14 -33.5t34 -13.5h66q18 0 28 -12t10 -25q0 -14 -10 -25.5t-28 -11.5h-192q-17 0 -27 11.5
t-10 25.5q0 13 10 25t27 12h20q-11 14 -13 27.5t-2 24.5q0 24 9.5 45t25.5 36t38 24t47 9q52 0 86 -34q12 -10 12 -25q0 -17 -10.5 -25.5t-23.5 -8.5q-10 0 -19 7z" />
    <glyph glyph-name="lamfina" unicode="&#x644;" horiz-adv-x="795" arabic-form="final" 
d="M345 -146q-73 0 -129 21.5t-94.5 61t-58.5 96t-20 126.5v24q0 29 21 50t51 21q29 0 50 -21t21 -50v-21q0 -39 12 -70.5t33.5 -53.5t51 -34t64.5 -12q34 0 63 12t50 34t33 53.5t12 70.5v521q0 29 21 50t51 21q29 0 50 -21t21 -50v-422q0 -35 11.5 -58.5t32 -37.5t47 -20
t56.5 -6l20 -20v-99l-20 -20q-49 0 -90.5 11.5t-73.5 35.5q-13 -42 -37 -77.5t-59 -61t-82.5 -40t-107.5 -14.5z" />
    <glyph glyph-name="lamini" unicode="&#x644;" horiz-adv-x="369" arabic-form="initial" 
d="M289 207q0 -59 -25 -99t-62 -64t-78 -34t-73 -10h-51l-20 21v98l20 20h55q50 0 70.5 22.5t20.5 73.5v448q0 29 21 50t51 21q29 0 50 -21t21 -50v-476z" />
    </font>
</defs>
</svg>
