<?xml version="1.0" standalone="no"?>
<!DOCTYPE svg PUBLIC "-//W3C//DTD SVG 1.1//EN" "http://www.w3.org/Graphics/SVG/1.1/DTD/svg11.dtd" >
<svg>
<metadata>
Created by FontForge 20090914 at Fri Jan 15 19:42:22 2016
 By www-data
Copyright (c) 2014 by Tarek Atrissi Design. All rights reserved.
</metadata>
<defs>
<font id="OoredooArabic-Bold" horiz-adv-x="0" >
  <font-face 
    font-family="OoredooArabic"
    font-weight="700"
    font-stretch="normal"
    units-per-em="1000"
    panose-1="1 0 5 0 0 0 0 2 0 6"
    ascent="800"
    descent="-200"
    bbox="-126 -489 1442 1132"
    underline-thickness="29"
    underline-position="-451"
    unicode-range="U+0020-U+FEFC"
  />
<missing-glyph horiz-adv-x="500" 
d="M62 0v562h375v-562h-375zM125 62h250v438h-250v-438z" />
    <glyph glyph-name="shaddehdamatan" unicode="&#x651;&#x64c;" arabic-form="isolated" 
d="M192 890l42.999 -0.000976562v-49c0 -29.333 -6.83301 -49.666 -20.5 -60.999s-30.5 -17 -50.5 -17c-20.667 0 -37 7 -49 21c-11.333 -13.333 -27.666 -20 -48.999 -20c-20 0 -36.667 5.66699 -50 17s-20 31 -20 59v50h42v-49c0 -8 1.83301 -15.833 5.5 -23.5
s11.167 -11.5 22.5 -11.5c10 0 17.167 3.83301 21.5 11.5s6.5 15.167 6.5 22.5v50h42v-49c0 -8 1.83301 -15.833 5.5 -23.5s11.167 -11.5 22.5 -11.5c10 0 17.167 3.83301 21.5 11.5s6.5 15.167 6.5 22.5v50zM121.999 972.999c-8 5.33301 -13.502 12.6699 -16.502 22.0029
s-4.5 18 -4.5 26c0 20.667 7.33301 38.334 22 53.001s32 22 52 22c20.667 0 38.334 -7.33301 53.001 -22s22 -32.334 22 -53.001c0 -16 -5.16699 -30.167 -15.5 -42.5s-22.166 -21.166 -35.499 -26.499l-70 -26c-14 -6 -25.5 -9.16699 -34.5 -9.5s-16.5 1.5 -22.5 5.5
s-11.167 10 -15.5 18s-8.5 17 -12.5 27l-2 5c-3.33301 8 -6.33301 12.833 -9 14.5s-7.66699 0.833984 -15 -2.49902l-19 -7l-17 44c14.667 5.33301 27.167 9.16602 37.5 11.499s19.166 2.66602 26.499 0.999023s13.833 -5.83398 19.5 -12.501s10.834 -16.334 15.501 -29.001
l4 -13c2.66699 -8 6 -12.333 10 -13s13 1.66602 27 6.99902zM145.997 1021c0 -8.66699 2.66699 -15.667 8 -21s12.333 -8 21 -8s15.834 2.66699 21.501 8s8.5 12.333 8.5 21s-2.83301 15.834 -8.5 21.501s-12.834 8.5 -21.501 8.5s-15.667 -2.83301 -21 -8.5
s-8 -12.834 -8 -21.501z" />
    <glyph glyph-name="shaddehkasratan" unicode="&#x651;&#x64d;" arabic-form="isolated" 
d="M221 884l18 -51l-223 -74l-16 48zM221 979l18 -51l-223 -74l-16 48zM192 1128l42.999 -0.000976562v-49c0 -29.333 -6.83301 -49.666 -20.5 -60.999s-30.5 -17 -50.5 -17c-20.667 0 -37 7 -49 21c-11.333 -13.333 -27.666 -20 -48.999 -20c-20 0 -36.667 5.66699 -50 17
s-20 31 -20 59v50h42v-49c0 -8 1.83301 -15.833 5.5 -23.5s11.167 -11.5 22.5 -11.5c10 0 17.167 3.83301 21.5 11.5s6.5 15.167 6.5 22.5v50h42v-49c0 -8 1.83301 -15.833 5.5 -23.5s11.167 -11.5 22.5 -11.5c10 0 17.167 3.83301 21.5 11.5s6.5 15.167 6.5 22.5v50z" />
    <glyph glyph-name="shaddehfatha" unicode="&#x651;&#x64e;" arabic-form="isolated" 
d="M192 890l42.999 -0.000976562v-49c0 -29.333 -6.83301 -49.666 -20.5 -60.999s-30.5 -17 -50.5 -17c-20.667 0 -37 7 -49 21c-11.333 -13.333 -27.666 -20 -48.999 -20c-20 0 -36.667 5.66699 -50 17s-20 31 -20 59v50h42v-49c0 -8 1.83301 -15.833 5.5 -23.5
s11.167 -11.5 22.5 -11.5c10 0 17.167 3.83301 21.5 11.5s6.5 15.167 6.5 22.5v50h42v-49c0 -8 1.83301 -15.833 5.5 -23.5s11.167 -11.5 22.5 -11.5c10 0 17.167 3.83301 21.5 11.5s6.5 15.167 6.5 22.5v50zM214.999 1040l18 -51l-223 -74l-16 48z" />
    <glyph glyph-name="shaddehdamma" unicode="&#x651;&#x64f;" arabic-form="isolated" 
d="M192 890l42.999 -0.000976562v-49c0 -29.333 -6.83301 -49.666 -20.5 -60.999s-30.5 -17 -50.5 -17c-20.667 0 -37 7 -49 21c-11.333 -13.333 -27.666 -20 -48.999 -20c-20 0 -36.667 5.66699 -50 17s-20 31 -20 59v50h42v-49c0 -8 1.83301 -15.833 5.5 -23.5
s11.167 -11.5 22.5 -11.5c10 0 17.167 3.83301 21.5 11.5s6.5 15.167 6.5 22.5v50h42v-49c0 -8 1.83301 -15.833 5.5 -23.5s11.167 -11.5 22.5 -11.5c10 0 17.167 3.83301 21.5 11.5s6.5 15.167 6.5 22.5v50zM65.999 1020c0 20.667 7.33203 38.332 21.999 52.999
s32 22 52 22c20.667 0 38.334 -7.33301 53.001 -22s22 -32.334 22 -53.001c0 -16 -5 -30.167 -15 -42.5s-22 -21.166 -36 -26.499l-141 -48l-16 48l73 25c-9.33301 12.667 -14 27.334 -14 44.001zM110.998 1020c0 -8.66699 2.66699 -15.667 8 -21s12.333 -8 21 -8
s15.834 2.66699 21.501 8s8.5 12.333 8.5 21s-2.83301 15.834 -8.5 21.501s-12.834 8.5 -21.501 8.5s-15.667 -2.83301 -21 -8.5s-8 -12.834 -8 -21.501z" />
    <glyph glyph-name="shaddehkasra" unicode="&#x651;&#x650;" arabic-form="isolated" 
d="M211 884l18 -51l-223 -74l-16 48zM192 1032l42.999 -0.000976562v-49c0 -29.333 -6.83301 -49.666 -20.5 -60.999s-30.5 -17 -50.5 -17c-20.667 0 -37 7 -49 21c-11.333 -13.333 -27.666 -20 -48.999 -20c-20 0 -36.667 5.66699 -50 17s-20 31 -20 59v50h42v-49
c0 -8 1.83301 -15.833 5.5 -23.5s11.167 -11.5 22.5 -11.5c10 0 17.167 3.83301 21.5 11.5s6.5 15.167 6.5 22.5v50h42v-49c0 -8 1.83301 -15.833 5.5 -23.5s11.167 -11.5 22.5 -11.5c10 0 17.167 3.83301 21.5 11.5s6.5 15.167 6.5 22.5v50z" />
    <glyph glyph-name="lammeeminitial" unicode="&#xfedf;&#xfee4;" horiz-adv-x="1097" arabic-form="initial" 
d="M377 408c32.667 0 63.166 -6.16699 91.499 -18.5s53.166 -29 74.499 -50s38.333 -45.667 51 -74s19 -58.833 19 -91.5c7.33301 -20 18 -34.5 32 -43.5s32.667 -13.5 56 -13.5h62v-117h-65c-27.333 0 -51 3.5 -71 10.5s-37.667 17.167 -53 30.5
c-21.333 -32 -49.166 -57.5 -83.499 -76.5s-72.166 -28.5 -113.499 -28.5c-42 0 -80 9.5 -114 28.5s-61.667 44.5 -83 76.5c-15.333 -13.333 -33 -23.5 -53 -30.5s-43.667 -10.5 -71 -10.5h-65v117h62c23.333 0 42 4.5 56 13.5s24.667 23.5 32 43.5
c0 32.667 6.16699 63.167 18.5 91.5s29.166 53 50.499 74s46.333 37.667 75 50s59.334 18.5 92.001 18.5zM252.999 172c0 -17.333 3.16699 -33.5 9.5 -48.5s15.166 -28.167 26.499 -39.5s24.5 -20.166 39.5 -26.499s31.167 -9.5 48.5 -9.5s33.5 3.16699 48.5 9.5
s28.167 15.166 39.5 26.499s20.166 24.5 26.499 39.5s9.5 31.167 9.5 48.5s-3.16699 33.5 -9.5 48.5s-15.166 28.167 -26.499 39.5s-24.5 20.166 -39.5 26.499s-31.167 9.5 -48.5 9.5s-33.5 -3.16699 -48.5 -9.5s-28.167 -15.166 -39.5 -26.499s-20.166 -24.5 -26.499 -39.5
s-9.5 -31.167 -9.5 -48.5zM1022 186c0 -29.333 -3.33203 -55.501 -9.99902 -78.501s-17.334 -42.5 -32.001 -58.5s-34 -28.167 -58 -36.5s-53 -12.5 -87 -12.5h-105v117h85c19.333 0 34.833 1.83301 46.5 5.5s20.5 9.33398 26.5 17.001s10 17.5 12 29.5s3 26.333 3 43v532
h119v-558z" />
    <glyph glyph-name="aleffathatanfina" unicode="&#xfe8e;&#x64b;" horiz-adv-x="358" arabic-form="final" 
d="M75 744l119.001 0.000976562v-532c0 -16.667 1 -31 3 -43s6 -21.833 12 -29.5s14.833 -13.334 26.5 -17.001s27.167 -5.5 46.5 -5.5h85v-117h-105c-34 0 -63 4.16699 -87 12.5s-43.333 20.5 -58 36.5s-25.334 35.5 -32.001 58.5s-10 49.167 -10 78.5v558z
M246.001 884.001l18 -51l-223 -74l-16 48zM246.001 979.001l18 -51l-223 -74l-16 48z" />
    <glyph glyph-name="aleffathataniso" unicode="&#x627;&#x64b;" horiz-adv-x="269" arabic-form="isolated" 
d="M75 744h119v-744h-119v744zM242 884l18 -51l-223 -74l-16 48zM242 979l18 -51l-223 -74l-16 48z" />
    <glyph glyph-name="lilah" unicode="&#xfedf;&#xfee0;&#x651;&#x670;&#xfeea;" horiz-adv-x="1432" arabic-form="isolated" 
d="M170 234c0 -18 3.33301 -34.667 10 -50s15.667 -28.666 27 -39.999s24.666 -20.333 39.999 -27s32 -10 50 -10s34.667 3.33301 50 10s28.666 15.667 39.999 27s20.333 24.666 27 39.999s10 32 10 50s-3.33301 34.667 -10 50s-15.667 28.666 -27 39.999
s-24.666 20.333 -39.999 27s-32 10 -50 10s-34.667 -3.33301 -50 -10s-28.666 -15.667 -39.999 -27s-20.333 -24.666 -27 -39.999s-10 -32 -10 -50zM539 220c0 -18 3.66797 -33.499 11.001 -46.499s16.5 -23.667 27.5 -32s23 -14.5 36 -18.5s25.167 -6 36.5 -6h38v-117h-38
c-33.333 0 -64.833 8 -94.5 24s-51.167 37.667 -64.5 65c-22 -29.333 -49.833 -52.833 -83.5 -70.5s-70.5 -26.5 -110.5 -26.5c-33.333 0 -64.666 6.33301 -93.999 19s-55 30 -77 52s-39.333 47.667 -52 77s-19 60.666 -19 93.999s6.33301 64.666 19 93.999s30 55 52 77
s47.667 39.333 77 52s60.666 19 93.999 19s64.666 -6.33301 93.999 -19s55 -30 77 -52s39.333 -47.667 52 -77s19 -60.666 19 -93.999v-14zM1064 0.000976562c-33.333 0 -64.833 7.99902 -94.5 23.999s-51.167 37.667 -64.5 65c-17.333 -28 -38.833 -49.833 -64.5 -65.5
s-59.167 -23.5 -100.5 -23.5h-78v117h75c36 0 61.5 10.833 76.5 32.5s22.5 58.167 22.5 109.5v485h119v-534c0 -20.667 3.5 -37.167 10.5 -49.5s16 -21.666 27 -27.999s22.833 -10.5 35.5 -12.5s24.667 -3 36 -3h50v-117h-50zM1377 186
c0 -29.333 -3.33203 -55.501 -9.99902 -78.501s-17.334 -42.5 -32.001 -58.5s-34 -28.167 -58 -36.5s-53 -12.5 -87 -12.5h-105v117h85c19.333 0 34.833 1.83301 46.5 5.5s20.5 9.33398 26.5 17.001s10 17.5 12 29.5s3 26.333 3 43v532h119v-558z" />
    <glyph glyph-name="lamalefmaddaaboveiso" unicode="&#xfedf;&#xfe82;" horiz-adv-x="744" arabic-form="isolated" 
d="M275 117l0.000976562 427.999h119v-428h68c19.333 0 34.833 1.83301 46.5 5.5s20.5 9.33398 26.5 17.001s10 17.5 12 29.5s3 26.333 3 43v532h119v-558c0 -29.333 -3.33301 -55.5 -10 -78.5s-17.334 -42.5 -32.001 -58.5s-34 -28.167 -58 -36.5s-53 -12.5 -87 -12.5h-407
v117h200zM107.001 727.999l71.001 0.00195312v-37c0 -11.333 3.33301 -20.833 10 -28.5s16.667 -11.5 30 -11.5c11.333 0 23.333 3.33301 36 10s26.167 14.167 40.5 22.5s29.5 15.833 45.5 22.5s33 10 51 10c14 0 27.667 -2.33301 41 -7s25.166 -11.834 35.499 -21.501
s18.5 -21.334 24.5 -35.001s9 -29.5 9 -47.5v-37h-70v37c0 10.667 -3.33301 20 -10 28s-16.667 12 -30 12c-11.333 0 -23.333 -3.33301 -36 -10s-26.167 -14.167 -40.5 -22.5s-29.5 -15.833 -45.5 -22.5s-33.333 -10 -52 -10c-14 0 -27.667 2.16699 -41 6.5s-25 11 -35 20
s-18.167 20.5 -24.5 34.5s-9.5 30.667 -9.5 50v37z" />
    <glyph glyph-name="lamalefmaddaabovefina" unicode="&#xfee0;&#xfe82;" horiz-adv-x="819" arabic-form="final" 
d="M75 0v116.999h200v428h119v-428h57c36 0 61.5 10.833 76.5 32.5s22.5 58.167 22.5 109.5v485h119v-534c0 -20.667 3.5 -37.167 10.5 -49.5s16 -21.666 27 -27.999s22.833 -10.5 35.5 -12.5s24.667 -3 36 -3h50v-117h-50c-33.333 0 -64.833 8 -94.5 24
s-51.167 37.667 -64.5 65c-17.333 -28 -38.833 -49.833 -64.5 -65.5s-59.167 -23.5 -100.5 -23.5h-379zM107 727.999l71.001 0.00195312v-37c0 -11.333 3.33301 -20.833 10 -28.5s16.667 -11.5 30 -11.5c11.333 0 23.333 3.33301 36 10s26.167 14.167 40.5 22.5
s29.5 15.833 45.5 22.5s33 10 51 10c14 0 27.667 -2.33301 41 -7s25.166 -11.834 35.499 -21.501s18.5 -21.334 24.5 -35.001s9 -29.5 9 -47.5v-37h-70v37c0 10.667 -3.33301 20 -10 28s-16.667 12 -30 12c-11.333 0 -23.333 -3.33301 -36 -10s-26.167 -14.167 -40.5 -22.5
s-29.5 -15.833 -45.5 -22.5s-33.333 -10 -52 -10c-14 0 -27.667 2.16699 -41 6.5s-25 11 -35 20s-18.167 20.5 -24.5 34.5s-9.5 30.667 -9.5 50v37z" />
    <glyph glyph-name="lamalefhamzaaboveiso" unicode="&#xfedf;&#xfe84;" horiz-adv-x="744" arabic-form="isolated" 
d="M275 117l0.000976562 427.999h119v-428h68c19.333 0 34.833 1.83301 46.5 5.5s20.5 9.33398 26.5 17.001s10 17.5 12 29.5s3 26.333 3 43v532h119v-558c0 -29.333 -3.33301 -55.5 -10 -78.5s-17.334 -42.5 -32.001 -58.5s-34 -28.167 -58 -36.5s-53 -12.5 -87 -12.5h-407
v117h200zM217.001 652.999l41 0.00195312c-7.33301 7.33301 -11.666 15.666 -12.999 24.999s-2 17 -2 23c0 25.333 9.16699 47.333 27.5 66s42.166 28 71.499 28c15.333 0 30.833 -3.83301 46.5 -11.5s27.5 -17.834 35.5 -30.501l-38 -24c-5.33301 6 -11 10 -17 12
s-12.333 3.33301 -19 4c-14 0.666992 -25.5 -3 -34.5 -11s-13.5 -18.667 -13.5 -32c0 -15.333 6.5 -27.333 19.5 -36s28.167 -13 45.5 -13h53v-52h-203v52z" />
    <glyph glyph-name="lamalefhamzaabovefina" unicode="&#xfee0;&#xfe84;" horiz-adv-x="819" arabic-form="final" 
d="M75 0v116.999h200v428h119v-428h57c36 0 61.5 10.833 76.5 32.5s22.5 58.167 22.5 109.5v485h119v-534c0 -20.667 3.5 -37.167 10.5 -49.5s16 -21.666 27 -27.999s22.833 -10.5 35.5 -12.5s24.667 -3 36 -3h50v-117h-50c-33.333 0 -64.833 8 -94.5 24
s-51.167 37.667 -64.5 65c-17.333 -28 -38.833 -49.833 -64.5 -65.5s-59.167 -23.5 -100.5 -23.5h-379zM217 652.999l41 0.00195312c-7.33301 7.33301 -11.666 15.666 -12.999 24.999s-2 17 -2 23c0 25.333 9.16699 47.333 27.5 66s42.166 28 71.499 28
c15.333 0 30.833 -3.83301 46.5 -11.5s27.5 -17.834 35.5 -30.501l-38 -24c-5.33301 6 -11 10 -17 12s-12.333 3.33301 -19 4c-14 0.666992 -25.5 -3 -34.5 -11s-13.5 -18.667 -13.5 -32c0 -15.333 6.5 -27.333 19.5 -36s28.167 -13 45.5 -13h53v-52h-203v52z" />
    <glyph glyph-name="lamalefhamzabelowiso" unicode="&#xfedf;&#xfe88;" horiz-adv-x="744" arabic-form="isolated" 
d="M275 117l0.000976562 427.999h119v-428h68c19.333 0 34.833 1.83301 46.5 5.5s20.5 9.33398 26.5 17.001s10 17.5 12 29.5s3 26.333 3 43v532h119v-558c0 -29.333 -3.33301 -55.5 -10 -78.5s-17.334 -42.5 -32.001 -58.5s-34 -28.167 -58 -36.5s-53 -12.5 -87 -12.5h-407
v117h200zM214.001 -189.001l41 0.00195312c-7.33301 7.33301 -11.666 15.666 -12.999 24.999s-2 17 -2 23c0 25.333 9.16699 47.333 27.5 66s42.166 28 71.499 28c15.333 0 30.833 -3.83301 46.5 -11.5s27.5 -17.834 35.5 -30.501l-38 -24c-5.33301 6 -11 10 -17 12
s-12.333 3.33301 -19 4c-14 0.666992 -25.5 -3 -34.5 -11s-13.5 -18.667 -13.5 -32c0 -15.333 6.5 -27.333 19.5 -36s28.167 -13 45.5 -13h53v-52h-203v52z" />
    <glyph glyph-name="lamalefhamzabelowfina" unicode="&#xfee0;&#xfe88;" horiz-adv-x="819" arabic-form="final" 
d="M75 0v116.999h200v428h119v-428h57c36 0 61.5 10.833 76.5 32.5s22.5 58.167 22.5 109.5v485h119v-534c0 -20.667 3.5 -37.167 10.5 -49.5s16 -21.666 27 -27.999s22.833 -10.5 35.5 -12.5s24.667 -3 36 -3h50v-117h-50c-33.333 0 -64.833 8 -94.5 24
s-51.167 37.667 -64.5 65c-17.333 -28 -38.833 -49.833 -64.5 -65.5s-59.167 -23.5 -100.5 -23.5h-379zM214 -189.001l41 0.00195312c-7.33301 7.33301 -11.666 15.666 -12.999 24.999s-2 17 -2 23c0 25.333 9.16699 47.333 27.5 66s42.166 28 71.499 28
c15.333 0 30.833 -3.83301 46.5 -11.5s27.5 -17.834 35.5 -30.501l-38 -24c-5.33301 6 -11 10 -17 12s-12.333 3.33301 -19 4c-14 0.666992 -25.5 -3 -34.5 -11s-13.5 -18.667 -13.5 -32c0 -15.333 6.5 -27.333 19.5 -36s28.167 -13 45.5 -13h53v-52h-203v52z" />
    <glyph glyph-name="lamalefiso" unicode="&#xfedf;&#xfe8e;" horiz-adv-x="744" arabic-form="isolated" 
d="M275 117l0.000976562 427.999h119v-428h68c19.333 0 34.833 1.83301 46.5 5.5s20.5 9.33398 26.5 17.001s10 17.5 12 29.5s3 26.333 3 43v532h119v-558c0 -29.333 -3.33301 -55.5 -10 -78.5s-17.334 -42.5 -32.001 -58.5s-34 -28.167 -58 -36.5s-53 -12.5 -87 -12.5h-407
v117h200z" />
    <glyph glyph-name="lamaleffina" unicode="&#xfee0;&#xfe8e;" horiz-adv-x="819" arabic-form="final" 
d="M75 0v116.999h200v428h119v-428h57c36 0 61.5 10.833 76.5 32.5s22.5 58.167 22.5 109.5v485h119v-534c0 -20.667 3.5 -37.167 10.5 -49.5s16 -21.666 27 -27.999s22.833 -10.5 35.5 -12.5s24.667 -3 36 -3h50v-117h-50c-33.333 0 -64.833 8 -94.5 24
s-51.167 37.667 -64.5 65c-17.333 -28 -38.833 -49.833 -64.5 -65.5s-59.167 -23.5 -100.5 -23.5h-379z" />
    <glyph glyph-name="shaddahfathatan" unicode="&#x651;&#x64b;" 
d="M192 890l42.999 -0.000976562v-49c0 -29.333 -6.83301 -49.666 -20.5 -60.999s-30.5 -17 -50.5 -17c-20.667 0 -37 7 -49 21c-11.333 -13.333 -27.666 -20 -48.999 -20c-20 0 -36.667 5.66699 -50 17s-20 31 -20 59v50h42v-49c0 -8 1.83301 -15.833 5.5 -23.5
s11.167 -11.5 22.5 -11.5c10 0 17.167 3.83301 21.5 11.5s6.5 15.167 6.5 22.5v50h42v-49c0 -8 1.83301 -15.833 5.5 -23.5s11.167 -11.5 22.5 -11.5c10 0 17.167 3.83301 21.5 11.5s6.5 15.167 6.5 22.5v50zM220.999 1037l18 -51l-223 -74l-16 48zM220.999 1132l18 -51
l-223 -74l-16 48z" />
    <glyph glyph-name="hamza" unicode="&#x621;" horiz-adv-x="553" arabic-form="isolated" 
d="M55 117h86.002c-6.66699 18 -10 42.333 -10 73c0 26.667 4 51.667 12 75s20.5 43.666 37.5 60.999s38.333 31 64 41s56.5 15 92.5 15c19.333 0 36.833 -2.66699 52.5 -8s30 -12.333 43 -21s24.833 -18.667 35.5 -30s20.667 -23 30 -35l-87 -45
c-13.333 11.333 -26.333 19 -39 23s-25 6 -37 6c-10 0 -19.833 -1.83301 -29.5 -5.5s-18.334 -8.66699 -26.001 -15s-13.834 -14.166 -18.501 -23.499s-7 -20 -7 -32c0 -21.333 6.5 -39.833 19.5 -55.5s32.167 -23.5 57.5 -23.5h163v-117h-439v117z" />
    <glyph glyph-name="alefmaddaaboveiso" unicode="&#x622;" horiz-adv-x="269" arabic-form="isolated" 
d="M75 744h119v-744h-119v744zM-94 919h76.002v-41c0 -12.667 3.5 -22.834 10.5 -30.501s17.833 -11.5 32.5 -11.5c12 0 26.833 4 44.5 12l57 26c20.333 9.33301 41 18 62 26s41.167 12 60.5 12c16 0 31 -2.33301 45 -7s26.5 -12 37.5 -22s19.667 -22.667 26 -38
s9.5 -33.666 9.5 -54.999v-41h-70v41c0 15.333 -4.33301 27 -13 35s-20.334 12 -35.001 12c-12.667 0 -27.667 -4 -45 -12l-56 -27c-20 -10 -40.667 -19 -62 -27s-42 -12 -62 -12s-37.5 3.16699 -52.5 9.5s-27.333 15 -37 26s-16.834 23.667 -21.501 38s-7 29.5 -7 45.5v41z
" />
    <glyph glyph-name="alefhamzaaboveiso" unicode="&#x623;" horiz-adv-x="269" arabic-form="isolated" 
d="M75 744h119v-744h-119v744zM31 845l41 0.00195312c-7.33301 7.33301 -11.666 15.666 -12.999 24.999s-2 17 -2 23c0 25.333 9.16699 47.333 27.5 66s42.166 28 71.499 28c15.333 0 30.833 -3.83301 46.5 -11.5s27.5 -17.834 35.5 -30.501l-38 -24
c-5.33301 6 -11 10 -17 12s-12.333 3.33301 -19 4c-14 0.666992 -25.5 -3 -34.5 -11s-13.5 -18.667 -13.5 -32c0 -15.333 6.5 -27.333 19.5 -36s28.167 -13 45.5 -13h53v-52h-203v52z" />
    <glyph glyph-name="wawhamzaiso" unicode="&#x624;" horiz-adv-x="580" arabic-form="isolated" 
d="M48 233c0 32.667 6.16602 63.335 18.499 92.002s29 53.5 50 74.5s45.667 37.667 74 50s58.833 18.5 91.5 18.5c34.667 0 65.834 -6.16699 93.501 -18.5s51 -29 70 -50s33.667 -45.833 44 -74.5s15.5 -59.334 15.5 -92.001v-219c0 -39.333 -6.66699 -74.5 -20 -105.5
s-32.833 -57.333 -58.5 -79s-56.667 -38.334 -93 -50.001s-77.5 -17.5 -123.5 -17.5c-28.667 0 -60 4 -94 12l32 107c25.333 -5.33301 50.333 -8 75 -8c22 0 42.5 2.5 61.5 7.5s35.667 12.833 50 23.5s26 23.834 35 39.501s14.167 34.5 15.5 56.5l-103 -1
c-32.667 0 -63.167 6 -91.5 18s-53 28.667 -74 50s-37.667 46.166 -50 74.499s-18.5 58.833 -18.5 91.5zM158.999 233.001c0 -17.333 3.16797 -33.001 9.50098 -47.001s15.166 -26.167 26.499 -36.5s24.333 -18.333 39 -24s30.667 -8.5 48 -8.5h104v121
c0 16.667 -2.33301 32.167 -7 46.5s-11.334 26.833 -20.001 37.5s-19.5 19.167 -32.5 25.5s-27.833 9.5 -44.5 9.5c-17.333 0 -33.333 -3.16699 -48 -9.5s-27.667 -15.166 -39 -26.499s-20.166 -24.5 -26.499 -39.5s-9.5 -31.167 -9.5 -48.5zM156.215 591.697
l49.7861 -0.000976562c-8.90527 8.91016 -14.167 19.0352 -15.7861 30.376s-2.42871 20.6562 -2.42871 27.9463c0 30.7803 11.1309 57.5107 33.3936 80.1914c22.2617 22.6807 51.2021 34.0205 86.8223 34.0205c18.6191 0 37.4404 -4.65723 56.4639 -13.9727
c19.0244 -9.31543 33.3936 -21.668 43.1084 -37.0586l-46.1436 -29.1602c-6.47656 7.29004 -13.3574 12.1504 -20.6436 14.5811c-7.28516 2.43066 -14.9756 4.05078 -23.0713 4.86035c-17 0.80957 -30.9639 -3.64551 -41.8926 -13.3652
c-10.9287 -9.7207 -16.3936 -22.6807 -16.3936 -38.8809c0 -18.6309 7.89258 -33.2109 23.6787 -43.7412s34.2031 -15.7959 55.251 -15.7959h64.3574v-63.1807h-246.502v63.1807z" />
    <glyph glyph-name="alefhamzabelowiso" unicode="&#x625;" horiz-adv-x="269" arabic-form="isolated" 
d="M75 744h119v-744h-119v744zM22 -189l41 0.00195312c-7.33301 7.33301 -11.666 15.666 -12.999 24.999s-2 17 -2 23c0 25.333 9.16699 47.333 27.5 66s42.166 28 71.499 28c15.333 0 30.833 -3.83301 46.5 -11.5s27.5 -17.834 35.5 -30.501l-38 -24
c-5.33301 6 -11 10 -17 12s-12.333 3.33301 -19 4c-14 0.666992 -25.5 -3 -34.5 -11s-13.5 -18.667 -13.5 -32c0 -15.333 6.5 -27.333 19.5 -36s28.167 -13 45.5 -13h53v-52h-203v52z" />
    <glyph glyph-name="hamzakirsehiso" unicode="&#x626;" horiz-adv-x="924" arabic-form="isolated" 
d="M832 316c-8 14 -18.1641 25.1621 -30.4971 33.4951s-27.166 12.5 -44.499 12.5c-20.667 0 -35.334 -2.83301 -44.001 -8.5s-13.334 -13.334 -14.001 -23.001s2 -21 8 -34s13.667 -26.833 23 -41.5l62 -97c15.333 -25.333 22.666 -52.166 21.999 -80.499
s-9 -54.166 -25 -77.499s-39.667 -42.666 -71 -57.999s-70 -23 -116 -23h-256c-43.333 0 -82.833 6.5 -118.5 19.5s-66.167 32.333 -91.5 58s-45 57.5 -59 95.5s-21 81.667 -21 131v23h119v-18c0 -22.667 2.16699 -45.5 6.5 -68.5s12.833 -43.667 25.5 -62
s30.334 -33.166 53.001 -44.499s52 -17 88 -17l236 -1c17.333 0 33.833 2 49.5 6s28.5 9.83301 38.5 17.5s16.667 16.834 20 27.501s1 22.667 -7 36l-102 172c-14.667 24.667 -20.334 48 -17.001 70s12.666 41.333 27.999 58s34.833 29.834 58.5 39.501s48.5 14.5 74.5 14.5
c16 0 33.333 -1.16699 52 -3.5s37 -7.5 55 -15.5s35.333 -19.167 52 -33.5s31 -33.5 43 -57.5zM107.218 362.692l49.7861 -0.000976562c-8.90527 8.91016 -14.167 19.0352 -15.7861 30.376s-2.42871 20.6562 -2.42871 27.9463c0 30.7803 11.1309 57.5107 33.3936 80.1914
c22.2617 22.6807 51.2021 34.0205 86.8223 34.0205c18.6191 0 37.4404 -4.65723 56.4639 -13.9727c19.0244 -9.31543 33.3936 -21.668 43.1084 -37.0586l-46.1436 -29.1602c-6.47656 7.29004 -13.3574 12.1504 -20.6436 14.5811
c-7.28516 2.43066 -14.9756 4.05078 -23.0713 4.86035c-17 0.80957 -30.9639 -3.64551 -41.8926 -13.3652c-10.9287 -9.7207 -16.3936 -22.6807 -16.3936 -38.8809c0 -18.6309 7.89258 -33.2109 23.6787 -43.7412s34.2031 -15.7959 55.251 -15.7959h64.3574v-63.1807
h-246.502v63.1807z" />
    <glyph glyph-name="alefiso" unicode="&#x627;" horiz-adv-x="269" arabic-form="isolated" 
d="M75 744h119v-744h-119v744z" />
    <glyph glyph-name="behiso" unicode="&#x628;" horiz-adv-x="967" arabic-form="isolated" 
d="M621 0l-256 -0.000976562c-43.333 0 -82.833 6.5 -118.5 19.5s-66.167 32.333 -91.5 58s-45 57.5 -59 95.5s-21 81.667 -21 131v104h119v-99c0 -22.667 2.16699 -45.5 6.5 -68.5s12.833 -43.667 25.5 -62s30.334 -33.166 53.001 -44.499s52 -17 88 -17h256
c34.667 0 63.167 6 85.5 18s39.666 27.167 51.999 45.5s20.833 38.5 25.5 60.5s7 43 7 63v104h119v-98c0 -51.333 -7 -96.333 -21 -135s-33.667 -71 -59 -97s-55.833 -45.5 -91.5 -58.5s-75.5 -19.5 -119.5 -19.5zM446 -157.001c0 19.333 7.16699 36.166 21.5 50.499
s31.166 21.5 50.499 21.5s36.166 -7.16699 50.499 -21.5s21.5 -31.166 21.5 -50.499s-7.16699 -36.166 -21.5 -50.499s-31.166 -21.5 -50.499 -21.5s-36.166 7.16699 -50.499 21.5s-21.5 31.166 -21.5 50.499z" />
    <glyph glyph-name="tehmarboutaiso" unicode="&#x629;" horiz-adv-x="594" arabic-form="isolated" 
d="M55 234c0 33.333 6.33301 64.666 19 93.999s30 55 52 77s47.667 39.333 77 52s60.666 19 93.999 19s64.666 -6.33301 93.999 -19s55 -30 77 -52s39.333 -47.667 52 -77s19 -60.666 19 -93.999s-6.33301 -64.666 -19 -93.999s-30 -55 -52 -77s-47.667 -39.333 -77 -52
s-60.666 -19 -93.999 -19s-64.666 6.33301 -93.999 19s-55 30 -77 52s-39.333 47.667 -52 77s-19 60.666 -19 93.999zM170 234c0 -18 3.33301 -34.667 10 -50s15.667 -28.666 27 -39.999s24.666 -20.333 39.999 -27s32 -10 50 -10s34.667 3.33301 50 10
s28.666 15.667 39.999 27s20.333 24.666 27 39.999s10 32 10 50s-3.33301 34.667 -10 50s-15.667 28.666 -27 39.999s-24.666 20.333 -39.999 27s-32 10 -50 10s-34.667 -3.33301 -50 -10s-28.666 -15.667 -39.999 -27s-20.333 -24.666 -27 -39.999s-10 -32 -10 -50z
M128 620c0 19.333 7.16699 36.166 21.5 50.499s31.166 21.5 50.499 21.5s36.166 -7.16699 50.499 -21.5s21.5 -31.166 21.5 -50.499s-7.16699 -36.166 -21.5 -50.499s-31.166 -21.5 -50.499 -21.5s-36.166 7.16699 -50.499 21.5s-21.5 31.166 -21.5 50.499zM306 620
c0 19.333 7.16699 36.166 21.5 50.499s31.166 21.5 50.499 21.5s36.166 -7.16699 50.499 -21.5s21.5 -31.166 21.5 -50.499s-7.16699 -36.166 -21.5 -50.499s-31.166 -21.5 -50.499 -21.5s-36.166 7.16699 -50.499 21.5s-21.5 31.166 -21.5 50.499z" />
    <glyph glyph-name="taiso" unicode="&#x62a;" horiz-adv-x="967" arabic-form="isolated" 
d="M621 0l-256 -0.000976562c-43.333 0 -82.833 6.5 -118.5 19.5s-66.167 32.333 -91.5 58s-45 57.5 -59 95.5s-21 81.667 -21 131v104h119v-99c0 -22.667 2.16699 -45.5 6.5 -68.5s12.833 -43.667 25.5 -62s30.334 -33.166 53.001 -44.499s52 -17 88 -17h256
c34.667 0 63.167 6 85.5 18s39.666 27.167 51.999 45.5s20.833 38.5 25.5 60.5s7 43 7 63v104h119v-98c0 -51.333 -7 -96.333 -21 -135s-33.667 -71 -59 -97s-55.833 -45.5 -91.5 -58.5s-75.5 -19.5 -119.5 -19.5zM326 619.999c0 19.333 7.16699 36.166 21.5 50.499
s31.166 21.5 50.499 21.5s36.166 -7.16699 50.499 -21.5s21.5 -31.166 21.5 -50.499s-7.16699 -36.166 -21.5 -50.499s-31.166 -21.5 -50.499 -21.5s-36.166 7.16699 -50.499 21.5s-21.5 31.166 -21.5 50.499zM504 619.999c0 19.333 7.16699 36.166 21.5 50.499
s31.166 21.5 50.499 21.5s36.166 -7.16699 50.499 -21.5s21.5 -31.166 21.5 -50.499s-7.16699 -36.166 -21.5 -50.499s-31.166 -21.5 -50.499 -21.5s-36.166 7.16699 -50.499 21.5s-21.5 31.166 -21.5 50.499z" />
    <glyph glyph-name="thaiso" unicode="&#x62b;" horiz-adv-x="967" arabic-form="isolated" 
d="M621 0l-256 -0.000976562c-43.333 0 -82.833 6.5 -118.5 19.5s-66.167 32.333 -91.5 58s-45 57.5 -59 95.5s-21 81.667 -21 131v104h119v-99c0 -22.667 2.16699 -45.5 6.5 -68.5s12.833 -43.667 25.5 -62s30.334 -33.166 53.001 -44.499s52 -17 88 -17h256
c34.667 0 63.167 6 85.5 18s39.666 27.167 51.999 45.5s20.833 38.5 25.5 60.5s7 43 7 63v104h119v-98c0 -51.333 -7 -96.333 -21 -135s-33.667 -71 -59 -97s-55.833 -45.5 -91.5 -58.5s-75.5 -19.5 -119.5 -19.5zM402 769.999c0 19.333 7.16699 36.166 21.5 50.499
s31.166 21.5 50.499 21.5s36.166 -7.16699 50.499 -21.5s21.5 -31.166 21.5 -50.499s-7.16699 -36.166 -21.5 -50.499s-31.166 -21.5 -50.499 -21.5s-36.166 7.16699 -50.499 21.5s-21.5 31.166 -21.5 50.499zM316 620.999c0 19.333 7.16699 36.166 21.5 50.499
s31.166 21.5 50.499 21.5s36.166 -7.16699 50.499 -21.5s21.5 -31.166 21.5 -50.499s-7.16699 -36.166 -21.5 -50.499s-31.166 -21.5 -50.499 -21.5s-36.166 7.16699 -50.499 21.5s-21.5 31.166 -21.5 50.499zM494 620.999c0 19.333 7.16699 36.166 21.5 50.499
s31.166 21.5 50.499 21.5s36.166 -7.16699 50.499 -21.5s21.5 -31.166 21.5 -50.499s-7.16699 -36.166 -21.5 -50.499s-31.166 -21.5 -50.499 -21.5s-36.166 7.16699 -50.499 21.5s-21.5 31.166 -21.5 50.499z" />
    <glyph glyph-name="jeemiso" unicode="&#x62c;" horiz-adv-x="699" arabic-form="isolated" 
d="M454 200l69.9922 0.00390625v51c0 21.333 -3.83301 41.5 -11.5 60.5s-18.167 35.5 -31.5 49.5s-29.166 25 -47.499 33s-38.166 12 -59.499 12c-28 0 -52.833 -6.33301 -74.5 -19s-41.167 -29.667 -58.5 -51l-68 94c24.667 28 54.334 50.167 89.001 66.5s72 24.5 112 24.5
c37.333 0 72.333 -7 105 -21s61.334 -33.333 86.001 -58s44 -53.334 58 -86.001s21 -67.667 21 -105l-1 -167h-208c-27.333 0 -53.333 -1 -78 -3s-46.167 -6.83301 -64.5 -14.5s-33 -19.5 -44 -35.5s-16.5 -38 -16.5 -66c0 -18 2.83301 -35.333 8.5 -52
s14.5 -31.334 26.5 -44.001s27 -22.667 45 -30s39.333 -11 64 -11c22.667 0 46.334 4.83301 71.001 14.5s46.334 25.5 65.001 47.5l87 -81c-22.667 -27.333 -52.167 -50.833 -88.5 -70.5s-80.166 -29.5 -131.499 -29.5c-37.333 0 -72.833 4.5 -106.5 13.5
s-63.5 23.833 -89.5 44.5s-46.667 47.667 -62 81s-23 74.666 -23 123.999c0 20.667 4.83301 44.167 14.5 70.5s24.334 51.166 44.001 74.499s44.667 43 75 59s66.5 24 108.5 24h114zM318.992 -27.9961c0 19.333 7.16699 36.166 21.5 50.499s31.166 21.5 50.499 21.5
s36.166 -7.16699 50.499 -21.5s21.5 -31.166 21.5 -50.499s-7.16699 -36.166 -21.5 -50.499s-31.166 -21.5 -50.499 -21.5s-36.166 7.16699 -50.499 21.5s-21.5 31.166 -21.5 50.499z" />
    <glyph glyph-name="haaiso" unicode="&#x62d;" horiz-adv-x="699" arabic-form="isolated" 
d="M454 200l69.9922 0.00390625v51c0 21.333 -3.83301 41.5 -11.5 60.5s-18.167 35.5 -31.5 49.5s-29.166 25 -47.499 33s-38.166 12 -59.499 12c-28 0 -52.833 -6.33301 -74.5 -19s-41.167 -29.667 -58.5 -51l-68 94c24.667 28 54.334 50.167 89.001 66.5s72 24.5 112 24.5
c37.333 0 72.333 -7 105 -21s61.334 -33.333 86.001 -58s44 -53.334 58 -86.001s21 -67.667 21 -105l-1 -167h-208c-27.333 0 -53.333 -1 -78 -3s-46.167 -6.83301 -64.5 -14.5s-33 -19.5 -44 -35.5s-16.5 -38 -16.5 -66c0 -18 2.83301 -35.333 8.5 -52
s14.5 -31.334 26.5 -44.001s27 -22.667 45 -30s39.333 -11 64 -11c22.667 0 46.334 4.83301 71.001 14.5s46.334 25.5 65.001 47.5l87 -81c-22.667 -27.333 -52.167 -50.833 -88.5 -70.5s-80.166 -29.5 -131.499 -29.5c-37.333 0 -72.833 4.5 -106.5 13.5
s-63.5 23.833 -89.5 44.5s-46.667 47.667 -62 81s-23 74.666 -23 123.999c0 20.667 4.83301 44.167 14.5 70.5s24.334 51.166 44.001 74.499s44.667 43 75 59s66.5 24 108.5 24h114z" />
    <glyph glyph-name="khaiso" unicode="&#x62e;" horiz-adv-x="699" arabic-form="isolated" 
d="M454 200l69.9922 0.00390625v51c0 21.333 -3.83301 41.5 -11.5 60.5s-18.167 35.5 -31.5 49.5s-29.166 25 -47.499 33s-38.166 12 -59.499 12c-28 0 -52.833 -6.33301 -74.5 -19s-41.167 -29.667 -58.5 -51l-68 94c24.667 28 54.334 50.167 89.001 66.5s72 24.5 112 24.5
c37.333 0 72.333 -7 105 -21s61.334 -33.333 86.001 -58s44 -53.334 58 -86.001s21 -67.667 21 -105l-1 -167h-208c-27.333 0 -53.333 -1 -78 -3s-46.167 -6.83301 -64.5 -14.5s-33 -19.5 -44 -35.5s-16.5 -38 -16.5 -66c0 -18 2.83301 -35.333 8.5 -52
s14.5 -31.334 26.5 -44.001s27 -22.667 45 -30s39.333 -11 64 -11c22.667 0 46.334 4.83301 71.001 14.5s46.334 25.5 65.001 47.5l87 -81c-22.667 -27.333 -52.167 -50.833 -88.5 -70.5s-80.166 -29.5 -131.499 -29.5c-37.333 0 -72.833 4.5 -106.5 13.5
s-63.5 23.833 -89.5 44.5s-46.667 47.667 -62 81s-23 74.666 -23 123.999c0 20.667 4.83301 44.167 14.5 70.5s24.334 51.166 44.001 74.499s44.667 43 75 59s66.5 24 108.5 24h114zM304.992 698.004c0 19.333 7.16699 36.166 21.5 50.499s31.166 21.5 50.499 21.5
s36.166 -7.16699 50.499 -21.5s21.5 -31.166 21.5 -50.499s-7.16699 -36.166 -21.5 -50.499s-31.166 -21.5 -50.499 -21.5s-36.166 7.16699 -50.499 21.5s-21.5 31.166 -21.5 50.499z" />
    <glyph glyph-name="daliso" unicode="&#x62f;" horiz-adv-x="587" arabic-form="isolated" 
d="M532 0l-447 0.000976562v117h327v81c0 21.333 -4.33301 41.333 -13 60s-20.834 35 -36.501 49s-34.834 25 -57.501 33s-48 12 -76 12h-42v116h42c50 0 93.833 -7 131.5 -21s69.334 -33.333 95.001 -58s44.834 -53.334 57.501 -86.001s19 -67.667 19 -105v-198z" />
    <glyph glyph-name="zaliso" unicode="&#x630;" horiz-adv-x="587" arabic-form="isolated" 
d="M532 0l-447 0.000976562v117h327v81c0 21.333 -4.33301 41.333 -13 60s-20.834 35 -36.501 49s-34.834 25 -57.501 33s-48 12 -76 12h-42v116h42c50 0 93.833 -7 131.5 -21s69.334 -33.333 95.001 -58s44.834 -53.334 57.501 -86.001s19 -67.667 19 -105v-198z
M200 621.001c0 19.333 7.16699 36.166 21.5 50.499s31.166 21.5 50.499 21.5s36.166 -7.16699 50.499 -21.5s21.5 -31.166 21.5 -50.499s-7.16699 -36.166 -21.5 -50.499s-31.166 -21.5 -50.499 -21.5s-36.166 7.16699 -50.499 21.5s-21.5 31.166 -21.5 50.499z" />
    <glyph glyph-name="raiso" unicode="&#x631;" horiz-adv-x="339" arabic-form="isolated" 
d="M162 408l118.998 0.000976562v-394c0 -39.333 -7 -74.5 -21 -105.5s-33.167 -57.333 -57.5 -79s-52.666 -38.334 -84.999 -50.001s-66.833 -17.5 -103.5 -17.5c-28.667 0 -60 4 -94 12l32 107c25.333 -5.33301 50.333 -8 75 -8c13.333 0 27.833 2.66699 43.5 8
s30.334 13.833 44.001 25.5s25 26.167 34 43.5s13.5 38 13.5 62v396z" />
    <glyph glyph-name="zaiso" unicode="&#x632;" horiz-adv-x="339" arabic-form="isolated" 
d="M162 408l118.998 0.000976562v-394c0 -39.333 -7 -74.5 -21 -105.5s-33.167 -57.333 -57.5 -79s-52.666 -38.334 -84.999 -50.001s-66.833 -17.5 -103.5 -17.5c-28.667 0 -60 4 -94 12l32 107c25.333 -5.33301 50.333 -8 75 -8c13.333 0 27.833 2.66699 43.5 8
s30.334 13.833 44.001 25.5s25 26.167 34 43.5s13.5 38 13.5 62v396zM110.998 621.001c0 19.333 7.16699 36.166 21.5 50.499s31.166 21.5 50.499 21.5s36.166 -7.16699 50.499 -21.5s21.5 -31.166 21.5 -50.499s-7.16699 -36.166 -21.5 -50.499
s-31.166 -21.5 -50.499 -21.5s-36.166 7.16699 -50.499 21.5s-21.5 31.166 -21.5 50.499z" />
    <glyph glyph-name="seeniso" unicode="&#x633;" horiz-adv-x="1339" arabic-form="isolated" 
d="M517 408l119.003 -0.000976562v-204c0.666992 -19.333 4.66699 -34.833 12 -46.5s16.333 -20.5 27 -26.5s22.167 -9.83301 34.5 -11.5s24.166 -2.5 35.499 -2.5c34 0.666992 58.5 11.834 73.5 33.501s22.5 57.834 22.5 108.501v149h119v-198
c0 -20.667 3.5 -37.167 10.5 -49.5s16 -21.666 27 -27.999s22.833 -10.5 35.5 -12.5s24.667 -3 36 -3c19.333 0 35.166 1.83301 47.499 5.5s22.166 9.33398 29.499 17.001s12.333 17.5 15 29.5s4 26.333 4 43v196h119v-222c0 -29.333 -3.5 -55.5 -10.5 -78.5
s-18.667 -42.5 -35 -58.5s-38.333 -28.167 -66 -36.5s-62.167 -12.5 -103.5 -12.5c-33.333 0 -64.833 8 -94.5 24s-51.167 37.667 -64.5 65c-17.333 -28 -38.833 -49.833 -64.5 -65.5s-59.167 -23.5 -100.5 -23.5c-20 0 -39.667 2.83301 -59 8.5
s-36.666 14.167 -51.999 25.5c-4 -44 -13.667 -82.5 -29 -115.5s-35.5 -60.833 -60.5 -83.5s-54.333 -39.667 -88 -51s-70.834 -17 -111.501 -17c-43.333 0 -82.833 6.5 -118.5 19.5s-66.167 32.333 -91.5 58s-45 57.5 -59 95.5s-21 81.667 -21 131v238h119v-233
c0 -22.667 2.16699 -45.5 6.5 -68.5s12.833 -43.833 25.5 -62.5s30.334 -33.834 53.001 -45.501s52 -17.5 88 -17.5c34.667 0 63.167 6.16699 85.5 18.5s39.666 27.666 51.999 45.999s20.833 38.666 25.5 60.999s7 43.5 7 63.5v337z" />
    <glyph glyph-name="sheeniso" unicode="&#x634;" horiz-adv-x="1339" arabic-form="isolated" 
d="M517 408l119.003 -0.000976562v-204c0.666992 -19.333 4.66699 -34.833 12 -46.5s16.333 -20.5 27 -26.5s22.167 -9.83301 34.5 -11.5s24.166 -2.5 35.499 -2.5c34 0.666992 58.5 11.834 73.5 33.501s22.5 57.834 22.5 108.501v149h119v-198
c0 -20.667 3.5 -37.167 10.5 -49.5s16 -21.666 27 -27.999s22.833 -10.5 35.5 -12.5s24.667 -3 36 -3c19.333 0 35.166 1.83301 47.499 5.5s22.166 9.33398 29.499 17.001s12.333 17.5 15 29.5s4 26.333 4 43v196h119v-222c0 -29.333 -3.5 -55.5 -10.5 -78.5
s-18.667 -42.5 -35 -58.5s-38.333 -28.167 -66 -36.5s-62.167 -12.5 -103.5 -12.5c-33.333 0 -64.833 8 -94.5 24s-51.167 37.667 -64.5 65c-17.333 -28 -38.833 -49.833 -64.5 -65.5s-59.167 -23.5 -100.5 -23.5c-20 0 -39.667 2.83301 -59 8.5
s-36.666 14.167 -51.999 25.5c-4 -44 -13.667 -82.5 -29 -115.5s-35.5 -60.833 -60.5 -83.5s-54.333 -39.667 -88 -51s-70.834 -17 -111.501 -17c-43.333 0 -82.833 6.5 -118.5 19.5s-66.167 32.333 -91.5 58s-45 57.5 -59 95.5s-21 81.667 -21 131v238h119v-233
c0 -22.667 2.16699 -45.5 6.5 -68.5s12.833 -43.833 25.5 -62.5s30.334 -33.834 53.001 -45.501s52 -17.5 88 -17.5c34.667 0 63.167 6.16699 85.5 18.5s39.666 27.666 51.999 45.999s20.833 38.666 25.5 60.999s7 43.5 7 63.5v337zM830.003 769.999
c0 19.333 7.16699 36.166 21.5 50.499s31.166 21.5 50.499 21.5s36.166 -7.16699 50.499 -21.5s21.5 -31.166 21.5 -50.499s-7.16699 -36.166 -21.5 -50.499s-31.166 -21.5 -50.499 -21.5s-36.166 7.16699 -50.499 21.5s-21.5 31.166 -21.5 50.499zM744.003 620.999
c0 19.333 7.16699 36.166 21.5 50.499s31.166 21.5 50.499 21.5s36.166 -7.16699 50.499 -21.5s21.5 -31.166 21.5 -50.499s-7.16699 -36.166 -21.5 -50.499s-31.166 -21.5 -50.499 -21.5s-36.166 7.16699 -50.499 21.5s-21.5 31.166 -21.5 50.499zM922.003 620.999
c0 19.333 7.16699 36.166 21.5 50.499s31.166 21.5 50.499 21.5s36.166 -7.16699 50.499 -21.5s21.5 -31.166 21.5 -50.499s-7.16699 -36.166 -21.5 -50.499s-31.166 -21.5 -50.499 -21.5s-36.166 7.16699 -50.499 21.5s-21.5 31.166 -21.5 50.499z" />
    <glyph glyph-name="sadiso" unicode="&#x635;" horiz-adv-x="1284" arabic-form="isolated" 
d="M537 408l118.997 0.00195312v-72l-5 -61h3c34 63.333 78.167 113.333 132.5 150s118.833 55 193.5 55c38 0 72.333 -5.66699 103 -17s56.834 -27.833 78.501 -49.5s38.334 -47.834 50.001 -78.501s17.5 -65 17.5 -103c0 -33.333 -6.5 -64 -19.5 -92
s-30.667 -52.5 -53 -73.5s-48.666 -37.333 -78.999 -49s-62.833 -17.5 -97.5 -17.5h-330c-12 -78.667 -43.333 -138 -94 -178s-114.334 -60 -191.001 -60c-43.333 0 -82.833 6.5 -118.5 19.5s-66.167 32.333 -91.5 58s-45 57.5 -59 95.5s-21 81.667 -21 131v243h119v-238
c0 -22.667 2.16699 -45.5 6.5 -68.5s12.833 -43.833 25.5 -62.5s30.334 -33.834 53.001 -45.501s52 -17.5 88 -17.5c33.333 0 60.833 5.5 82.5 16.5s39 25.167 52 42.5s22.167 36.5 27.5 57.5s8 41.167 8 60.5v354zM933.997 117.002c22.667 0 44.667 2.33008 66 6.99707
s40.333 11.834 57 21.501s29.834 22 39.501 37s14.5 32.5 14.5 52.5c0 16.667 -2.33301 32.834 -7 48.501s-12.334 29.667 -23.001 42s-24.167 22.333 -40.5 30s-35.833 11.5 -58.5 11.5c-32 0 -61.833 -6.16699 -89.5 -18.5s-53.5 -29.666 -77.5 -51.999
s-45.833 -48.833 -65.5 -79.5s-37.5 -64 -53.5 -100h238z" />
    <glyph glyph-name="dadiso" unicode="&#x636;" horiz-adv-x="1284" arabic-form="isolated" 
d="M537 408l118.997 0.00195312v-72l-5 -61h3c34 63.333 78.167 113.333 132.5 150s118.833 55 193.5 55c38 0 72.333 -5.66699 103 -17s56.834 -27.833 78.501 -49.5s38.334 -47.834 50.001 -78.501s17.5 -65 17.5 -103c0 -33.333 -6.5 -64 -19.5 -92
s-30.667 -52.5 -53 -73.5s-48.666 -37.333 -78.999 -49s-62.833 -17.5 -97.5 -17.5h-330c-12 -78.667 -43.333 -138 -94 -178s-114.334 -60 -191.001 -60c-43.333 0 -82.833 6.5 -118.5 19.5s-66.167 32.333 -91.5 58s-45 57.5 -59 95.5s-21 81.667 -21 131v243h119v-238
c0 -22.667 2.16699 -45.5 6.5 -68.5s12.833 -43.833 25.5 -62.5s30.334 -33.834 53.001 -45.501s52 -17.5 88 -17.5c33.333 0 60.833 5.5 82.5 16.5s39 25.167 52 42.5s22.167 36.5 27.5 57.5s8 41.167 8 60.5v354zM933.997 117.002c22.667 0 44.667 2.33008 66 6.99707
s40.333 11.834 57 21.501s29.834 22 39.501 37s14.5 32.5 14.5 52.5c0 16.667 -2.33301 32.834 -7 48.501s-12.334 29.667 -23.001 42s-24.167 22.333 -40.5 30s-35.833 11.5 -58.5 11.5c-32 0 -61.833 -6.16699 -89.5 -18.5s-53.5 -29.666 -77.5 -51.999
s-45.833 -48.833 -65.5 -79.5s-37.5 -64 -53.5 -100h238zM767.997 620.999c0 19.333 7.16699 36.166 21.5 50.499s31.166 21.5 50.499 21.5s36.166 -7.16699 50.499 -21.5s21.5 -31.166 21.5 -50.499s-7.16699 -36.166 -21.5 -50.499s-31.166 -21.5 -50.499 -21.5
s-36.166 7.16699 -50.499 21.5s-21.5 31.166 -21.5 50.499z" />
    <glyph glyph-name="tahiso" unicode="&#x637;" horiz-adv-x="913" arabic-form="isolated" 
d="M75 0l-0.00292969 117.001h91v627h119v-408l-5 -61h3c34 63.333 78.167 113.333 132.5 150s118.833 55 193.5 55c38 0 72.333 -5.66699 103 -17s56.834 -27.833 78.501 -49.5s38.334 -47.834 50.001 -78.501s17.5 -65 17.5 -103c0 -33.333 -6.5 -64 -19.5 -92
s-30.667 -52.5 -53 -73.5s-48.666 -37.333 -78.999 -49s-62.833 -17.5 -97.5 -17.5h-534zM560.997 117.001c22.667 0 44.833 2.33203 66.5 6.99902s40.834 11.834 57.501 21.501s30 22 40 37s15 32.5 15 52.5c0 16.667 -2.33301 32.834 -7 48.501s-12.334 29.667 -23.001 42
s-24.167 22.166 -40.5 29.499s-35.833 11 -58.5 11c-32 0 -61.833 -6.16699 -89.5 -18.5s-53.5 -29.5 -77.5 -51.5s-45.833 -48.333 -65.5 -79s-37.5 -64 -53.5 -100h236z" />
    <glyph glyph-name="zadiso" unicode="&#x638;" horiz-adv-x="913" arabic-form="isolated" 
d="M75 0l-0.00292969 117.001h91v627h119v-408l-5 -61h3c34 63.333 78.167 113.333 132.5 150s118.833 55 193.5 55c38 0 72.333 -5.66699 103 -17s56.834 -27.833 78.501 -49.5s38.334 -47.834 50.001 -78.501s17.5 -65 17.5 -103c0 -33.333 -6.5 -64 -19.5 -92
s-30.667 -52.5 -53 -73.5s-48.666 -37.333 -78.999 -49s-62.833 -17.5 -97.5 -17.5h-534zM560.997 117.001c22.667 0 44.833 2.33203 66.5 6.99902s40.834 11.834 57.501 21.501s30 22 40 37s15 32.5 15 52.5c0 16.667 -2.33301 32.834 -7 48.501s-12.334 29.667 -23.001 42
s-24.167 22.166 -40.5 29.499s-35.833 11 -58.5 11c-32 0 -61.833 -6.16699 -89.5 -18.5s-53.5 -29.5 -77.5 -51.5s-45.833 -48.333 -65.5 -79s-37.5 -64 -53.5 -100h236zM454.996 621c0 19.333 7.16699 36.166 21.5 50.499s31.166 21.5 50.499 21.5
s36.166 -7.16699 50.499 -21.5s21.5 -31.166 21.5 -50.499s-7.16699 -36.166 -21.5 -50.499s-31.166 -21.5 -50.499 -21.5s-36.166 7.16699 -50.499 21.5s-21.5 31.166 -21.5 50.499z" />
    <glyph glyph-name="ayniso" unicode="&#x639;" horiz-adv-x="717" arabic-form="isolated" 
d="M392 94c-27.333 0 -53.335 -1.49609 -78.002 -4.49609s-46.167 -9 -64.5 -18s-33 -22 -44 -39s-16.5 -39.5 -16.5 -67.5c0 -18 2.83301 -35.333 8.5 -52s14.5 -31.334 26.5 -44.001s27 -22.667 45 -30s39.333 -11 64 -11c22.667 0 46.334 4.83301 71.001 14.5
s46.334 25.5 65.001 47.5l87 -81c-22.667 -27.333 -52.167 -50.833 -88.5 -70.5s-80.166 -29.5 -131.499 -29.5c-37.333 0 -72.833 4.5 -106.5 13.5s-63.5 23.833 -89.5 44.5s-46.667 47.667 -62 81s-23 74.666 -23 123.999c0 20.667 4.33301 43.167 13 67.5
s21.5 47.333 38.5 69s37.667 40.5 62 56.5s52.166 25.667 83.499 29c-9.33301 7.33301 -17 16.5 -23 27.5s-10.667 22.5 -14 34.5s-5.83301 24.167 -7.5 36.5s-2.5 24.166 -2.5 35.499c0 33.333 6.33301 64.666 19 93.999s30 55 52 77s47.667 39.333 77 52
s60.666 19 93.999 19c47.333 0 90 -12 128 -36s67 -55.667 87 -95l-109 -41c-11.333 17.333 -26.166 31.166 -44.499 41.499s-38.833 15.5 -61.5 15.5c-18 0 -34.667 -3.33301 -50 -10s-28.666 -15.667 -39.999 -27s-20.333 -24.666 -27 -39.999s-10 -32 -10 -50
s3.33301 -34.167 10 -48.5s15.667 -26.5 27 -36.5s24.666 -17.833 39.999 -23.5s32 -8.5 50 -8.5h215v-117h-270z" />
    <glyph glyph-name="ghaiso" unicode="&#x63a;" horiz-adv-x="717" arabic-form="isolated" 
d="M392 94c-27.333 0 -53.335 -1.49609 -78.002 -4.49609s-46.167 -9 -64.5 -18s-33 -22 -44 -39s-16.5 -39.5 -16.5 -67.5c0 -18 2.83301 -35.333 8.5 -52s14.5 -31.334 26.5 -44.001s27 -22.667 45 -30s39.333 -11 64 -11c22.667 0 46.334 4.83301 71.001 14.5
s46.334 25.5 65.001 47.5l87 -81c-22.667 -27.333 -52.167 -50.833 -88.5 -70.5s-80.166 -29.5 -131.499 -29.5c-37.333 0 -72.833 4.5 -106.5 13.5s-63.5 23.833 -89.5 44.5s-46.667 47.667 -62 81s-23 74.666 -23 123.999c0 20.667 4.33301 43.167 13 67.5
s21.5 47.333 38.5 69s37.667 40.5 62 56.5s52.166 25.667 83.499 29c-9.33301 7.33301 -17 16.5 -23 27.5s-10.667 22.5 -14 34.5s-5.83301 24.167 -7.5 36.5s-2.5 24.166 -2.5 35.499c0 33.333 6.33301 64.666 19 93.999s30 55 52 77s47.667 39.333 77 52
s60.666 19 93.999 19c47.333 0 90 -12 128 -36s67 -55.667 87 -95l-109 -41c-11.333 17.333 -26.166 31.166 -44.499 41.499s-38.833 15.5 -61.5 15.5c-18 0 -34.667 -3.33301 -50 -10s-28.666 -15.667 -39.999 -27s-20.333 -24.666 -27 -39.999s-10 -32 -10 -50
s3.33301 -34.167 10 -48.5s15.667 -26.5 27 -36.5s24.666 -17.833 39.999 -23.5s32 -8.5 50 -8.5h215v-117h-270zM365.998 698.004c0 19.333 7.16699 36.166 21.5 50.499s31.166 21.5 50.499 21.5s36.166 -7.16699 50.499 -21.5s21.5 -31.166 21.5 -50.499
s-7.16699 -36.166 -21.5 -50.499s-31.166 -21.5 -50.499 -21.5s-36.166 7.16699 -50.499 21.5s-21.5 31.166 -21.5 50.499z" />
    <glyph glyph-name="faiso" unicode="&#x641;" horiz-adv-x="1086" arabic-form="isolated" 
d="M668 238c0 -17.333 3.33301 -33.666 10 -48.999s15.667 -28.666 27 -39.999s24.666 -20.333 39.999 -27s31.666 -10 48.999 -10s33.666 3.33301 48.999 10s28.666 15.667 39.999 27s20.333 24.666 27 39.999s10 31.666 10 48.999s-3.33301 33.666 -10 48.999
s-15.667 28.666 -27 39.999s-24.666 20.333 -39.999 27s-31.666 10 -48.999 10s-33.666 -3.33301 -48.999 -10s-28.666 -15.667 -39.999 -27s-20.333 -24.666 -27 -39.999s-10 -31.666 -10 -48.999zM365 0c-43.333 0 -82.833 6.49902 -118.5 19.499s-66.167 32.333 -91.5 58
s-45 57.5 -59 95.5s-21 81.667 -21 131v104h119v-99c0 -22.667 2.16699 -45.5 6.5 -68.5s12.833 -43.667 25.5 -62s30.334 -33.166 53.001 -44.499s52 -17 88 -17h221c-10 17.333 -17.833 36.166 -23.5 56.499s-8.5 41.833 -8.5 64.5c0 33.333 6.16699 64.5 18.5 93.5
s29.166 54.167 50.499 75.5s46.5 38.166 75.5 50.499s60.167 18.5 93.5 18.5s64.5 -6.16699 93.5 -18.5s54.167 -29.166 75.5 -50.499s38.166 -46.5 50.499 -75.5s18.5 -60.167 18.5 -93.5s-6.16699 -64.5 -18.5 -93.5s-29.166 -54.167 -50.499 -75.5
s-46.5 -38.166 -75.5 -50.499s-60.167 -18.5 -93.5 -18.5h-429zM711 620.999c0 19.333 7.16699 36.166 21.5 50.499s31.166 21.5 50.499 21.5s36.166 -7.16699 50.499 -21.5s21.5 -31.166 21.5 -50.499s-7.16699 -36.166 -21.5 -50.499s-31.166 -21.5 -50.499 -21.5
s-36.166 7.16699 -50.499 21.5s-21.5 31.166 -21.5 50.499z" />
    <glyph glyph-name="kaafiso" unicode="&#x642;" horiz-adv-x="1086" arabic-form="isolated" 
d="M668 238c0 -17.333 3.33301 -33.666 10 -48.999s15.667 -28.666 27 -39.999s24.666 -20.333 39.999 -27s31.666 -10 48.999 -10s33.666 3.33301 48.999 10s28.666 15.667 39.999 27s20.333 24.666 27 39.999s10 31.666 10 48.999s-3.33301 33.666 -10 48.999
s-15.667 28.666 -27 39.999s-24.666 20.333 -39.999 27s-31.666 10 -48.999 10s-33.666 -3.33301 -48.999 -10s-28.666 -15.667 -39.999 -27s-20.333 -24.666 -27 -39.999s-10 -31.666 -10 -48.999zM365 0c-43.333 0 -82.833 6.49902 -118.5 19.499s-66.167 32.333 -91.5 58
s-45 57.5 -59 95.5s-21 81.667 -21 131v104h119v-99c0 -22.667 2.16699 -45.5 6.5 -68.5s12.833 -43.667 25.5 -62s30.334 -33.166 53.001 -44.499s52 -17 88 -17h221c-10 17.333 -17.833 36.166 -23.5 56.499s-8.5 41.833 -8.5 64.5c0 33.333 6.16699 64.5 18.5 93.5
s29.166 54.167 50.499 75.5s46.5 38.166 75.5 50.499s60.167 18.5 93.5 18.5s64.5 -6.16699 93.5 -18.5s54.167 -29.166 75.5 -50.499s38.166 -46.5 50.499 -75.5s18.5 -60.167 18.5 -93.5s-6.16699 -64.5 -18.5 -93.5s-29.166 -54.167 -50.499 -75.5
s-46.5 -38.166 -75.5 -50.499s-60.167 -18.5 -93.5 -18.5h-429zM628 619.999c0 19.333 7.16699 36.166 21.5 50.499s31.166 21.5 50.499 21.5s36.166 -7.16699 50.499 -21.5s21.5 -31.166 21.5 -50.499s-7.16699 -36.166 -21.5 -50.499s-31.166 -21.5 -50.499 -21.5
s-36.166 7.16699 -50.499 21.5s-21.5 31.166 -21.5 50.499zM806 619.999c0 19.333 7.16699 36.166 21.5 50.499s31.166 21.5 50.499 21.5s36.166 -7.16699 50.499 -21.5s21.5 -31.166 21.5 -50.499s-7.16699 -36.166 -21.5 -50.499s-31.166 -21.5 -50.499 -21.5
s-36.166 7.16699 -50.499 21.5s-21.5 31.166 -21.5 50.499z" />
    <glyph glyph-name="kafiso" unicode="&#x643;" horiz-adv-x="870" arabic-form="isolated" 
d="M541 0l-196.001 -0.00390625c-43.333 0 -82.833 6.5 -118.5 19.5s-66.167 32.333 -91.5 58s-45 57.5 -59 95.5s-21 81.667 -21 131v53h119v-48c0 -22.667 2.16699 -45.5 6.5 -68.5s12.833 -43.667 25.5 -62s30.334 -33.166 53.001 -44.499s52 -17 88 -17h196
c34.667 0 61.167 4.16699 79.5 12.5s31.5 19.5 39.5 33.5s12.333 30.167 13 48.5s1 37.5 1 57.5v476h119v-470c0 -59.333 -5 -107.166 -15 -143.499s-25.5 -64.166 -46.5 -83.499s-47.333 -32.166 -79 -38.499s-69.5 -9.5 -113.5 -9.5zM296.999 444.996h49.999
c-8.66699 9.33301 -13.834 19.5 -15.501 30.5s-2.5 20.167 -2.5 27.5c0 15.333 3 29.833 9 43.5s14.333 25.834 25 36.501s23.334 19 38.001 25s30.667 9 48 9c18 0 36.667 -4.66699 56 -14s34 -21.666 44 -36.999l-47 -29c-6.66699 7.33301 -13.667 12.166 -21 14.499
s-14.666 4.16602 -21.999 5.49902c-17.333 0.666992 -31.5 -4 -42.5 -14s-16.5 -23 -16.5 -39c0 -18.667 7.83301 -33.167 23.5 -43.5s34.167 -15.5 55.5 -15.5h65v-63h-247v63z" />
    <glyph glyph-name="lamiso" unicode="&#x644;" horiz-adv-x="691" arabic-form="isolated" 
d="M517 744l119 0.00292969v-580c0 -51.333 -7 -96.333 -21 -135s-33.667 -71 -59 -97s-55.833 -45.5 -91.5 -58.5s-75.5 -19.5 -119.5 -19.5c-43.333 0 -82.833 6.5 -118.5 19.5s-66.167 32.333 -91.5 58s-45 57.5 -59 95.5s-21 81.667 -21 131v86h119v-81
c0 -22.667 2.16699 -45.5 6.5 -68.5s12.833 -43.833 25.5 -62.5s30.334 -33.834 53.001 -45.501s52 -17.5 88 -17.5c34.667 0 63.167 6.16699 85.5 18.5s39.666 27.666 51.999 45.999s20.833 38.666 25.5 60.999s7 43.5 7 63.5v586z" />
    <glyph glyph-name="meemiso" unicode="&#x645;" horiz-adv-x="768" arabic-form="isolated" 
d="M239 172c0 32.667 6.16699 63.332 18.5 91.999s29.166 53.834 50.499 75.501s46.333 38.667 75 51s59.334 18.5 92.001 18.5s63.334 -6.16699 92.001 -18.5s53.834 -29.333 75.501 -51s38.667 -46.834 51 -75.501s18.5 -59.334 18.5 -92.001
s-6.16699 -63.334 -18.5 -92.001s-29.333 -53.667 -51 -75s-46.834 -38.166 -75.501 -50.499s-59.334 -18.5 -92.001 -18.5c-39.333 0 -75.5 8.66699 -108.5 26s-60.167 40.333 -81.5 69c-5.33301 -3.33301 -11 -6.33301 -17 -9s-11.667 -5 -17 -7l-29 -11.5
c-9.33301 -3.66699 -17.5 -9 -24.5 -16s-12.667 -16.167 -17 -27.5s-6.5 -26.666 -6.5 -45.999v-202h-119v198c0 44.667 10.333 83.667 31 117s54 58.333 100 75c27.333 10 46 19.667 56 29c-2 12.667 -3 26.334 -3 41.001zM351 171.998c0 -17.333 3.16699 -33.5 9.5 -48.5
s15.166 -28.167 26.499 -39.5s24.5 -20.166 39.5 -26.499s31.167 -9.5 48.5 -9.5s33.666 3.16699 48.999 9.5s28.666 15.166 39.999 26.499s20.166 24.5 26.499 39.5s9.5 31.167 9.5 48.5s-3.16699 33.666 -9.5 48.999s-15.166 28.666 -26.499 39.999
s-24.666 20.166 -39.999 26.499s-31.666 9.5 -48.999 9.5s-33.5 -3.16699 -48.5 -9.5s-28.167 -15.166 -39.5 -26.499s-20.166 -24.666 -26.499 -39.999s-9.5 -31.666 -9.5 -48.999z" />
    <glyph glyph-name="nouniso" unicode="&#x646;" horiz-adv-x="691" arabic-form="isolated" 
d="M517 408l119 0.00292969v-244c0 -51.333 -7 -96.333 -21 -135s-33.667 -71 -59 -97s-55.833 -45.5 -91.5 -58.5s-75.5 -19.5 -119.5 -19.5c-43.333 0 -82.833 6.5 -118.5 19.5s-66.167 32.333 -91.5 58s-45 57.5 -59 95.5s-21 81.667 -21 131v250h119v-245
c0 -22.667 2.16699 -45.5 6.5 -68.5s12.833 -43.833 25.5 -62.5s30.334 -33.834 53.001 -45.501s52 -17.5 88 -17.5c34.667 0 63.167 6.16699 85.5 18.5s39.666 27.666 51.999 45.999s20.833 38.666 25.5 60.999s7 43.5 7 63.5v250zM270 621.003
c0 19.333 7.16699 36.166 21.5 50.499s31.166 21.5 50.499 21.5s36.166 -7.16699 50.499 -21.5s21.5 -31.166 21.5 -50.499s-7.16699 -36.166 -21.5 -50.499s-31.166 -21.5 -50.499 -21.5s-36.166 7.16699 -50.499 21.5s-21.5 31.166 -21.5 50.499z" />
    <glyph glyph-name="haini" unicode="&#x647;" horiz-adv-x="678" arabic-form="initial" 
d="M508 218c0 21.333 -4 41.501 -12 60.501s-19 35.5 -33 49.5s-30.5 25 -49.5 33s-39.167 12 -60.5 12h-188v115h188c37.333 0 72.333 -7 105 -21s61.334 -33.333 86.001 -58s44 -53.334 58 -86.001s21 -67.667 21 -105l-1 -218h-631v117h94c-6.66699 18.667 -10 37 -10 55
c0 23.333 4.5 45 13.5 65s21.333 37.333 37 52s33.667 26.167 54 34.5s41.833 12.5 64.5 12.5s44.5 -4.16699 65.5 -12.5s39.167 -19.833 54.5 -34.5s27.666 -32 36.999 -52s14 -41.667 14 -65c0 -18 -3.33301 -36.333 -10 -55h103v101zM170 170.001
c0 -19.333 7.33301 -36.666 22 -51.999s31.667 -23 51 -23h3c19.333 0.666992 35.833 8.66699 49.5 24s20.5 32.333 20.5 51c0 19.333 -7.16699 36.333 -21.5 51s-31.5 22 -51.5 22c-9.33301 0 -18.5 -2 -27.5 -6s-16.833 -9.33301 -23.5 -16s-12 -14.334 -16 -23.001
s-6 -18 -6 -28z" />
    <glyph glyph-name="wawiso" unicode="&#x648;" horiz-adv-x="580" arabic-form="isolated" 
d="M48 233c0 32.667 6.16602 63.335 18.499 92.002s29 53.5 50 74.5s45.667 37.667 74 50s58.833 18.5 91.5 18.5c34.667 0 65.834 -6.16699 93.501 -18.5s51 -29 70 -50s33.667 -45.833 44 -74.5s15.5 -59.334 15.5 -92.001v-219c0 -39.333 -6.66699 -74.5 -20 -105.5
s-32.833 -57.333 -58.5 -79s-56.667 -38.334 -93 -50.001s-77.5 -17.5 -123.5 -17.5c-28.667 0 -60 4 -94 12l32 107c25.333 -5.33301 50.333 -8 75 -8c22 0 42.5 2.5 61.5 7.5s35.667 12.833 50 23.5s26 23.834 35 39.501s14.167 34.5 15.5 56.5l-103 -1
c-32.667 0 -63.167 6 -91.5 18s-53 28.667 -74 50s-37.667 46.166 -50 74.499s-18.5 58.833 -18.5 91.5zM158.999 233.001c0 -17.333 3.16797 -33.001 9.50098 -47.001s15.166 -26.167 26.499 -36.5s24.333 -18.333 39 -24s30.667 -8.5 48 -8.5h104v121
c0 16.667 -2.33301 32.167 -7 46.5s-11.334 26.833 -20.001 37.5s-19.5 19.167 -32.5 25.5s-27.833 9.5 -44.5 9.5c-17.333 0 -33.333 -3.16699 -48 -9.5s-27.667 -15.166 -39 -26.499s-20.166 -24.5 -26.499 -39.5s-9.5 -31.167 -9.5 -48.5z" />
    <glyph glyph-name="alefma2souraiso" unicode="&#x649;" horiz-adv-x="924" arabic-form="isolated" 
d="M832 316c-8 14 -18.1641 25.1621 -30.4971 33.4951s-27.166 12.5 -44.499 12.5c-20.667 0 -35.334 -2.83301 -44.001 -8.5s-13.334 -13.334 -14.001 -23.001s2 -21 8 -34s13.667 -26.833 23 -41.5l62 -97c15.333 -25.333 22.666 -52.166 21.999 -80.499
s-9 -54.166 -25 -77.499s-39.667 -42.666 -71 -57.999s-70 -23 -116 -23h-256c-43.333 0 -82.833 6.5 -118.5 19.5s-66.167 32.333 -91.5 58s-45 57.5 -59 95.5s-21 81.667 -21 131v23h119v-18c0 -22.667 2.16699 -45.5 6.5 -68.5s12.833 -43.667 25.5 -62
s30.334 -33.166 53.001 -44.499s52 -17 88 -17l236 -1c17.333 0 33.833 2 49.5 6s28.5 9.83301 38.5 17.5s16.667 16.834 20 27.501s1 22.667 -7 36l-102 172c-14.667 24.667 -20.334 48 -17.001 70s12.666 41.333 27.999 58s34.833 29.834 58.5 39.501s48.5 14.5 74.5 14.5
c16 0 33.333 -1.16699 52 -3.5s37 -7.5 55 -15.5s35.333 -19.167 52 -33.5s31 -33.5 43 -57.5z" />
    <glyph glyph-name="yaiso" unicode="&#x64a;" horiz-adv-x="924" arabic-form="isolated" 
d="M832 316c-8 14 -18.1641 25.1621 -30.4971 33.4951s-27.166 12.5 -44.499 12.5c-20.667 0 -35.334 -2.83301 -44.001 -8.5s-13.334 -13.334 -14.001 -23.001s2 -21 8 -34s13.667 -26.833 23 -41.5l62 -97c15.333 -25.333 22.666 -52.166 21.999 -80.499
s-9 -54.166 -25 -77.499s-39.667 -42.666 -71 -57.999s-70 -23 -116 -23h-256c-43.333 0 -82.833 6.5 -118.5 19.5s-66.167 32.333 -91.5 58s-45 57.5 -59 95.5s-21 81.667 -21 131v23h119v-18c0 -22.667 2.16699 -45.5 6.5 -68.5s12.833 -43.667 25.5 -62
s30.334 -33.166 53.001 -44.499s52 -17 88 -17l236 -1c17.333 0 33.833 2 49.5 6s28.5 9.83301 38.5 17.5s16.667 16.834 20 27.501s1 22.667 -7 36l-102 172c-14.667 24.667 -20.334 48 -17.001 70s12.666 41.333 27.999 58s34.833 29.834 58.5 39.501s48.5 14.5 74.5 14.5
c16 0 33.333 -1.16699 52 -3.5s37 -7.5 55 -15.5s35.333 -19.167 52 -33.5s31 -33.5 43 -57.5zM307.003 -214.005c0 19.333 7.16699 36.166 21.5 50.499s31.166 21.5 50.499 21.5s36.166 -7.16699 50.499 -21.5s21.5 -31.166 21.5 -50.499s-7.16699 -36.166 -21.5 -50.499
s-31.166 -21.5 -50.499 -21.5s-36.166 7.16699 -50.499 21.5s-21.5 31.166 -21.5 50.499zM485.003 -214.005c0 19.333 7.16699 36.166 21.5 50.499s31.166 21.5 50.499 21.5s36.166 -7.16699 50.499 -21.5s21.5 -31.166 21.5 -50.499s-7.16699 -36.166 -21.5 -50.499
s-31.166 -21.5 -50.499 -21.5s-36.166 7.16699 -50.499 21.5s-21.5 31.166 -21.5 50.499z" />
    <glyph glyph-name="alefwaslaiso" unicode="&#x671;" horiz-adv-x="242" arabic-form="isolated" 
d="M53 814l21.998 0.00195312c2.66699 9.33301 6.33398 17.666 11.001 24.999s9.66699 14.666 15 21.999c12.667 12.667 29.334 19 50.001 19c14 0 24.667 -3.66699 32 -11c9.33301 -7.33301 14 -20 14 -38v-44h-144v27zM165.998 814.002l0.000976562 14.001
c0 11.333 -1.66699 19.666 -5 24.999c-3.33301 4 -7 6 -11 6c-8 0 -17 -5 -27 -15c-4.66699 -5.33301 -8.33398 -10.5 -11.001 -15.5s-4.66699 -9.83301 -6 -14.5h60zM74.999 744.003h119v-744h-119v744z" />
    <glyph glyph-name="piso.001" unicode="&#x67e;" horiz-adv-x="941" arabic-form="isolated" 
d="M556 -272c0 19.333 -7.16699 36.166 -21.5 50.499s-31.166 21.5 -50.499 21.5s-36.166 -7.16699 -50.499 -21.5s-21.5 -31.166 -21.5 -50.499s7.16699 -36.166 21.5 -50.499s31.166 -21.5 50.499 -21.5s36.166 7.16699 50.499 21.5s21.5 31.166 21.5 50.499zM642 -123
c0 19.333 -7.16699 36.166 -21.5 50.499s-31.166 21.5 -50.499 21.5s-36.166 -7.16699 -50.499 -21.5s-21.5 -31.166 -21.5 -50.499s7.16699 -36.166 21.5 -50.499s31.166 -21.5 50.499 -21.5s36.166 7.16699 50.499 21.5s21.5 31.166 21.5 50.499zM464 -123
c0 19.333 -7.16699 36.166 -21.5 50.499s-31.166 21.5 -50.499 21.5s-36.166 -7.16699 -50.499 -21.5s-21.5 -31.166 -21.5 -50.499s7.16699 -36.166 21.5 -50.499s31.166 -21.5 50.499 -21.5s36.166 7.16699 50.499 21.5s21.5 31.166 21.5 50.499zM606 0l-256 -0.000976562
c-43.333 0 -82.833 6.5 -118.5 19.5s-66.167 32.333 -91.5 58s-45 57.5 -59 95.5s-21 81.667 -21 131v104h119v-99c0 -22.667 2.16699 -45.5 6.5 -68.5s12.833 -43.667 25.5 -62s30.334 -33.166 53.001 -44.499s52 -17 88 -17h256c34.667 0 63.167 6 85.5 18
s39.666 27.167 51.999 45.5s20.833 38.5 25.5 60.5s7 43 7 63v104h119v-98c0 -51.333 -7 -96.333 -21 -135s-33.667 -71 -59 -97s-55.833 -45.5 -91.5 -58.5s-75.5 -19.5 -119.5 -19.5z" />
    <glyph glyph-name="giso" unicode="&#x686;" horiz-adv-x="674" arabic-form="isolated" 
d="M454 -99c0 14.667 -5.16699 27.167 -15.5 37.5s-22.833 15.5 -37.5 15.5c-14 0 -26.167 -5.16699 -36.5 -15.5s-15.5 -22.833 -15.5 -37.5c0 -14 5.16699 -26.167 15.5 -36.5s22.5 -15.5 36.5 -15.5c14.667 0 27.167 5.16699 37.5 15.5s15.5 22.5 15.5 36.5zM517 10
c0 14.667 -5.16699 27.167 -15.5 37.5s-22.833 15.5 -37.5 15.5c-14 0 -26.333 -5.16699 -37 -15.5s-16 -22.833 -16 -37.5c0 -14 5.33301 -26.333 16 -37s23 -16 37 -16c14.667 0 27.167 5.33301 37.5 16s15.5 23 15.5 37zM387 10c0 14.667 -5.33301 27.167 -16 37.5
s-23 15.5 -37 15.5c-14.667 0 -27.167 -5.16699 -37.5 -15.5s-15.5 -22.833 -15.5 -37.5c0 -14 5.16699 -26.333 15.5 -37s22.833 -16 37.5 -16c14 0 26.333 5.33301 37 16s16 23 16 37zM431 200l69.9922 0.00390625v51c0 21.333 -3.83301 41.5 -11.5 60.5
s-18.167 35.5 -31.5 49.5s-29.166 25 -47.499 33s-38.166 12 -59.499 12c-28 0 -52.833 -6.33301 -74.5 -19s-41.167 -29.667 -58.5 -51l-68 94c24.667 28 54.334 50.167 89.001 66.5s72 24.5 112 24.5c37.333 0 72.333 -7 105 -21s61.334 -33.333 86.001 -58
s44 -53.334 58 -86.001s21 -67.667 21 -105l-1 -167h-208c-27.333 0 -53.333 -1 -78 -3s-46.167 -6.83301 -64.5 -14.5s-33 -19.5 -44 -35.5s-16.5 -38 -16.5 -66c0 -18 2.83301 -35.333 8.5 -52s14.5 -31.334 26.5 -44.001s27 -22.667 45 -30s39.333 -11 64 -11
c22.667 0 46.334 4.83301 71.001 14.5s46.334 25.5 65.001 47.5l87 -81c-22.667 -27.333 -52.167 -50.833 -88.5 -70.5s-80.166 -29.5 -131.499 -29.5c-37.333 0 -72.833 4.5 -106.5 13.5s-63.5 23.833 -89.5 44.5s-46.667 47.667 -62 81s-23 74.666 -23 123.999
c0 20.667 4.83301 44.167 14.5 70.5s24.334 51.166 44.001 74.499s44.667 43 75 59s66.5 24 108.5 24h114z" />
    <glyph glyph-name="jehiso" unicode="&#x698;" horiz-adv-x="339" arabic-form="isolated" 
d="M162 408l118.998 0.000976562v-394c0 -39.333 -7 -74.5 -21 -105.5s-33.167 -57.333 -57.5 -79s-52.666 -38.334 -84.999 -50.001s-66.833 -17.5 -103.5 -17.5c-28.667 0 -60 4 -94 12l32 107c25.333 -5.33301 50.333 -8 75 -8c13.333 0 27.833 2.66699 43.5 8
s30.334 13.833 44.001 25.5s25 26.167 34 43.5s13.5 38 13.5 62v396zM90.998 726.001c0 19.333 7.16699 36.166 21.5 50.499s31.166 21.5 50.499 21.5s36.166 -7.16699 50.499 -21.5s21.5 -31.166 21.5 -50.499s-7.16699 -36.166 -21.5 -50.499s-31.166 -21.5 -50.499 -21.5
s-36.166 7.16699 -50.499 21.5s-21.5 31.166 -21.5 50.499zM4.99805 577.001c0 19.333 7.16699 36.166 21.5 50.499s31.166 21.5 50.499 21.5s36.166 -7.16699 50.499 -21.5s21.5 -31.166 21.5 -50.499s-7.16699 -36.166 -21.5 -50.499s-31.166 -21.5 -50.499 -21.5
s-36.166 7.16699 -50.499 21.5s-21.5 31.166 -21.5 50.499zM182.998 577.001c0 19.333 7.16699 36.166 21.5 50.499s31.166 21.5 50.499 21.5s36.166 -7.16699 50.499 -21.5s21.5 -31.166 21.5 -50.499s-7.16699 -36.166 -21.5 -50.499s-31.166 -21.5 -50.499 -21.5
s-36.166 7.16699 -50.499 21.5s-21.5 31.166 -21.5 50.499z" />
    <glyph glyph-name="vehiso" unicode="&#x6a4;" horiz-adv-x="1086" arabic-form="isolated" 
d="M668 238c0 -17.333 3.33301 -33.666 10 -48.999s15.667 -28.666 27 -39.999s24.666 -20.333 39.999 -27s31.666 -10 48.999 -10s33.666 3.33301 48.999 10s28.666 15.667 39.999 27s20.333 24.666 27 39.999s10 31.666 10 48.999s-3.33301 33.666 -10 48.999
s-15.667 28.666 -27 39.999s-24.666 20.333 -39.999 27s-31.666 10 -48.999 10s-33.666 -3.33301 -48.999 -10s-28.666 -15.667 -39.999 -27s-20.333 -24.666 -27 -39.999s-10 -31.666 -10 -48.999zM365 0c-43.333 0 -82.833 6.49902 -118.5 19.499s-66.167 32.333 -91.5 58
s-45 57.5 -59 95.5s-21 81.667 -21 131v104h119v-99c0 -22.667 2.16699 -45.5 6.5 -68.5s12.833 -43.667 25.5 -62s30.334 -33.166 53.001 -44.499s52 -17 88 -17h221c-10 17.333 -17.833 36.166 -23.5 56.499s-8.5 41.833 -8.5 64.5c0 33.333 6.16699 64.5 18.5 93.5
s29.166 54.167 50.499 75.5s46.5 38.166 75.5 50.499s60.167 18.5 93.5 18.5s64.5 -6.16699 93.5 -18.5s54.167 -29.166 75.5 -50.499s38.166 -46.5 50.499 -75.5s18.5 -60.167 18.5 -93.5s-6.16699 -64.5 -18.5 -93.5s-29.166 -54.167 -50.499 -75.5
s-46.5 -38.166 -75.5 -50.499s-60.167 -18.5 -93.5 -18.5h-429zM709 769.999c0 19.333 7.16699 36.166 21.5 50.499s31.166 21.5 50.499 21.5s36.166 -7.16699 50.499 -21.5s21.5 -31.166 21.5 -50.499s-7.16699 -36.166 -21.5 -50.499s-31.166 -21.5 -50.499 -21.5
s-36.166 7.16699 -50.499 21.5s-21.5 31.166 -21.5 50.499zM623 620.999c0 19.333 7.16699 36.166 21.5 50.499s31.166 21.5 50.499 21.5s36.166 -7.16699 50.499 -21.5s21.5 -31.166 21.5 -50.499s-7.16699 -36.166 -21.5 -50.499s-31.166 -21.5 -50.499 -21.5
s-36.166 7.16699 -50.499 21.5s-21.5 31.166 -21.5 50.499zM801 620.999c0 19.333 7.16699 36.166 21.5 50.499s31.166 21.5 50.499 21.5s36.166 -7.16699 50.499 -21.5s21.5 -31.166 21.5 -50.499s-7.16699 -36.166 -21.5 -50.499s-31.166 -21.5 -50.499 -21.5
s-36.166 7.16699 -50.499 21.5s-21.5 31.166 -21.5 50.499z" />
    <glyph glyph-name="kehehiso" unicode="&#x6a9;" horiz-adv-x="859" arabic-form="isolated" 
d="M541 0l-196.001 -0.00390625c-43.333 0 -82.833 6.5 -118.5 19.5s-66.167 32.333 -91.5 58s-45 57.5 -59 95.5s-21 81.667 -21 131v53h119v-48c0 -22.667 2.16699 -45.5 6.5 -68.5s12.833 -43.667 25.5 -62s30.334 -33.166 53.001 -44.499s52 -17 88 -17h196
c34.667 0 61.167 4.16699 79.5 12.5s31.5 19.5 39.5 33.5s12.333 30.167 13 48.5s1 37.5 1 57.5v476h119v-470c0 -59.333 -5 -107.166 -15 -143.499s-25.5 -64.166 -46.5 -83.499s-47.333 -32.166 -79 -38.499s-69.5 -9.5 -113.5 -9.5zM280.999 444.996h49.999
c-8.66699 9.33301 -13.834 19.5 -15.501 30.5s-2.5 20.167 -2.5 27.5c0 15.333 3 29.833 9 43.5s14.333 25.834 25 36.501s23.334 19 38.001 25s30.667 9 48 9c18 0 36.667 -4.66699 56 -14s34 -21.666 44 -36.999l-47 -29c-6.66699 7.33301 -13.667 12.166 -21 14.499
s-14.666 4.16602 -21.999 5.49902c-17.333 0.666992 -31.5 -4 -42.5 -14s-16.5 -23 -16.5 -39c0 -18.667 7.83301 -33.167 23.5 -43.5s34.167 -15.5 55.5 -15.5h65v-63h-247v63z" />
    <glyph glyph-name="gafiso" unicode="&#x6af;" horiz-adv-x="842" arabic-form="isolated" 
d="M531 0l-196.001 -0.00390625c-43.333 0 -82.833 6.5 -118.5 19.5s-66.167 32.333 -91.5 58s-45 57.5 -59 95.5s-21 81.667 -21 131v53h119v-48c0 -22.667 2.16699 -45.5 6.5 -68.5s12.833 -43.667 25.5 -62s30.334 -33.166 53.001 -44.499s52 -17 88 -17h196
c34.667 0 61.167 4.16699 79.5 12.5s31.5 19.5 39.5 33.5s12.333 30.167 13 48.5s1 37.5 1 57.5v476h119v-470c0 -59.333 -5 -107.166 -15 -143.499s-25.5 -64.166 -46.5 -83.499s-47.333 -32.166 -79 -38.499s-69.5 -9.5 -113.5 -9.5zM280.999 444.996h49.999
c-8.66699 9.33301 -13.834 19.5 -15.501 30.5s-2.5 20.167 -2.5 27.5c0 15.333 3 29.833 9 43.5s14.333 25.834 25 36.501s23.334 19 38.001 25s30.667 9 48 9c18 0 36.667 -4.66699 56 -14s34 -21.666 44 -36.999l-47 -29c-6.66699 7.33301 -13.667 12.166 -21 14.499
s-14.666 4.16602 -21.999 5.49902c-17.333 0.666992 -31.5 -4 -42.5 -14s-16.5 -23 -16.5 -39c0 -18.667 7.83301 -33.167 23.5 -43.5s34.167 -15.5 55.5 -15.5h65v-63h-247v63z" />
    <glyph glyph-name="farsiyaiso" unicode="&#x6cc;" horiz-adv-x="918" arabic-form="isolated" 
d="M832 316c-8 14 -18.1641 25.1621 -30.4971 33.4951s-27.166 12.5 -44.499 12.5c-20.667 0 -35.334 -2.83301 -44.001 -8.5s-13.334 -13.334 -14.001 -23.001s2 -21 8 -34s13.667 -26.833 23 -41.5l62 -97c15.333 -25.333 22.666 -52.166 21.999 -80.499
s-9 -54.166 -25 -77.499s-39.667 -42.666 -71 -57.999s-70 -23 -116 -23h-256c-43.333 0 -82.833 6.5 -118.5 19.5s-66.167 32.333 -91.5 58s-45 57.5 -59 95.5s-21 81.667 -21 131v23h119v-18c0 -22.667 2.16699 -45.5 6.5 -68.5s12.833 -43.667 25.5 -62
s30.334 -33.166 53.001 -44.499s52 -17 88 -17l236 -1c17.333 0 33.833 2 49.5 6s28.5 9.83301 38.5 17.5s16.667 16.834 20 27.501s1 22.667 -7 36l-102 172c-14.667 24.667 -20.334 48 -17.001 70s12.666 41.333 27.999 58s34.833 29.834 58.5 39.501s48.5 14.5 74.5 14.5
c16 0 33.333 -1.16699 52 -3.5s37 -7.5 55 -15.5s35.333 -19.167 52 -33.5s31 -33.5 43 -57.5z" />
    <glyph glyph-name="alefwaslafina" unicode="&#x671;" horiz-adv-x="358" arabic-form="final" 
d="M75 744l119.001 0.000976562v-532c0 -16.667 1 -31 3 -43s6 -21.833 12 -29.5s14.833 -13.334 26.5 -17.001s27.167 -5.5 46.5 -5.5h85v-117h-105c-34 0 -63 4.16699 -87 12.5s-43.333 20.5 -58 36.5s-25.334 35.5 -32.001 58.5s-10 49.167 -10 78.5v558z" />
    <glyph glyph-name="pfina" unicode="&#x67e;" horiz-adv-x="1058" arabic-form="final" 
d="M579 -272c0 19.333 -7.16699 36.166 -21.5 50.499s-31.166 21.5 -50.499 21.5s-36.166 -7.16699 -50.499 -21.5s-21.5 -31.166 -21.5 -50.499s7.16699 -36.166 21.5 -50.499s31.166 -21.5 50.499 -21.5s36.166 7.16699 50.499 21.5s21.5 31.166 21.5 50.499zM665 -123
c0 19.333 -7.16699 36.166 -21.5 50.499s-31.166 21.5 -50.499 21.5s-36.166 -7.16699 -50.499 -21.5s-21.5 -31.166 -21.5 -50.499s7.16699 -36.166 21.5 -50.499s31.166 -21.5 50.499 -21.5s36.166 7.16699 50.499 21.5s21.5 31.166 21.5 50.499zM487 -123
c0 19.333 -7.16699 36.166 -21.5 50.499s-31.166 21.5 -50.499 21.5s-36.166 -7.16699 -50.499 -21.5s-21.5 -31.166 -21.5 -50.499s7.16699 -36.166 21.5 -50.499s31.166 -21.5 50.499 -21.5s36.166 7.16699 50.499 21.5s21.5 31.166 21.5 50.499zM365 0
c-43.333 0 -82.834 6.49805 -118.501 19.498s-66.167 32.333 -91.5 58s-45 57.5 -59 95.5s-21 81.667 -21 131v104h119v-99c0 -22.667 2.16699 -45.5 6.5 -68.5s12.833 -43.667 25.5 -62s30.334 -33.166 53.001 -44.499s52 -17 88 -17h327c36 0 61.5 10.833 76.5 32.5
s22.5 58.167 22.5 109.5v149h119v-198c0 -20.667 3.5 -37.167 10.5 -49.5s16 -21.666 27 -27.999s22.833 -10.5 35.5 -12.5s24.667 -3 36 -3h50v-117h-50c-33.333 0 -64.833 8 -94.5 24s-51.167 37.667 -64.5 65c-17.333 -28 -38.833 -49.833 -64.5 -65.5
s-59.167 -23.5 -100.5 -23.5h-332z" />
    <glyph glyph-name="pini" unicode="&#x67e;" horiz-adv-x="345" arabic-form="initial" 
d="M238 -272c0 19.333 -7.16699 36.166 -21.5 50.499s-31.166 21.5 -50.499 21.5s-36.166 -7.16699 -50.499 -21.5s-21.5 -31.166 -21.5 -50.499s7.16699 -36.166 21.5 -50.499s31.166 -21.5 50.499 -21.5s36.166 7.16699 50.499 21.5s21.5 31.166 21.5 50.499zM324 -123
c0 19.333 -7.16699 36.166 -21.5 50.499s-31.166 21.5 -50.499 21.5s-36.166 -7.16699 -50.499 -21.5s-21.5 -31.166 -21.5 -50.499s7.16699 -36.166 21.5 -50.499s31.166 -21.5 50.499 -21.5s36.166 7.16699 50.499 21.5s21.5 31.166 21.5 50.499zM146 -123
c0 19.333 -7.16699 36.166 -21.5 50.499s-31.166 21.5 -50.499 21.5s-36.166 -7.16699 -50.499 -21.5s-21.5 -31.166 -21.5 -50.499s7.16699 -36.166 21.5 -50.499s31.166 -21.5 50.499 -21.5s36.166 7.16699 50.499 21.5s21.5 31.166 21.5 50.499zM283 186
c0 -29.333 -3.33203 -55.501 -9.99902 -78.501s-17.334 -42.5 -32.001 -58.5s-34 -28.167 -58 -36.5s-53 -12.5 -87 -12.5h-105v117h85c19.333 0 34.833 1.83301 46.5 5.5s20.5 9.33398 26.5 17.001s10 17.5 12 29.5s3 26.333 3 43v196h119v-222z" />
    <glyph glyph-name="pmedi" unicode="&#x67e;" horiz-adv-x="434" arabic-form="medial" 
d="M291 -272c0 19.333 -7.16699 36.166 -21.5 50.499s-31.166 21.5 -50.499 21.5s-36.166 -7.16699 -50.499 -21.5s-21.5 -31.166 -21.5 -50.499s7.16699 -36.166 21.5 -50.499s31.166 -21.5 50.499 -21.5s36.166 7.16699 50.499 21.5s21.5 31.166 21.5 50.499zM377 -123
c0 19.333 -7.16699 36.166 -21.5 50.499s-31.166 21.5 -50.499 21.5s-36.166 -7.16699 -50.499 -21.5s-21.5 -31.166 -21.5 -50.499s7.16699 -36.166 21.5 -50.499s31.166 -21.5 50.499 -21.5s36.166 7.16699 50.499 21.5s21.5 31.166 21.5 50.499zM199 -123
c0 19.333 -7.16699 36.166 -21.5 50.499s-31.166 21.5 -50.499 21.5s-36.166 -7.16699 -50.499 -21.5s-21.5 -31.166 -21.5 -50.499s7.16699 -36.166 21.5 -50.499s31.166 -21.5 50.499 -21.5s36.166 7.16699 50.499 21.5s21.5 31.166 21.5 50.499zM393 0
c-33.333 0 -64.833 7.99902 -94.5 23.999s-51.167 37.667 -64.5 65c-17.333 -28 -38.833 -49.833 -64.5 -65.5s-59.167 -23.5 -100.5 -23.5h-78v117h75c36 0 61.5 10.833 76.5 32.5s22.5 58.167 22.5 109.5v149h119v-198c0 -20.667 3.5 -37.167 10.5 -49.5
s16 -21.666 27 -27.999s22.833 -10.5 35.5 -12.5s24.667 -3 36 -3h50v-117h-50z" />
    <glyph glyph-name="gfina" unicode="&#x686;" horiz-adv-x="791" arabic-form="final" 
d="M454 -99c0 14.667 -5.16699 27.167 -15.5 37.5s-22.833 15.5 -37.5 15.5c-14 0 -26.167 -5.16699 -36.5 -15.5s-15.5 -22.833 -15.5 -37.5c0 -14 5.16699 -26.167 15.5 -36.5s22.5 -15.5 36.5 -15.5c14.667 0 27.167 5.16699 37.5 15.5s15.5 22.5 15.5 36.5zM517 10
c0 14.667 -5.16699 27.167 -15.5 37.5s-22.833 15.5 -37.5 15.5c-14 0 -26.333 -5.16699 -37 -15.5s-16 -22.833 -16 -37.5c0 -14 5.33301 -26.333 16 -37s23 -16 37 -16c14.667 0 27.167 5.33301 37.5 16s15.5 23 15.5 37zM387 10c0 14.667 -5.33301 27.167 -16 37.5
s-23 15.5 -37 15.5c-14.667 0 -27.167 -5.16699 -37.5 -15.5s-15.5 -22.833 -15.5 -37.5c0 -14 5.16699 -26.333 15.5 -37s22.833 -16 37.5 -16c14 0 26.333 5.33301 37 16s16 23 16 37zM435 84c-27.333 0 -53.3398 -0.994141 -78.0068 -2.99414
s-46.167 -6.83301 -64.5 -14.5s-33 -19.5 -44 -35.5s-16.5 -38 -16.5 -66c0 -18 2.83301 -35.333 8.5 -52s14.5 -31.334 26.5 -44.001s27 -22.667 45 -30s39.333 -11 64 -11c22.667 0 46.334 4.83301 71.001 14.5s46.334 25.5 65.001 47.5l87 -81
c-22.667 -27.333 -52.167 -50.833 -88.5 -70.5s-80.166 -29.5 -131.499 -29.5c-37.333 0 -72.833 4.5 -106.5 13.5s-63.5 23.833 -89.5 44.5s-46.667 47.667 -62 81s-23 74.666 -23 123.999c0 20.667 4.83301 44.167 14.5 70.5s24.334 51.166 44.001 74.499s44.667 43 75 59
s66.5 24 108.5 24h114h70v51c0 21.333 -3.83301 41.5 -11.5 60.5s-18.167 35.5 -31.5 49.5s-29.166 25 -47.499 33s-38.166 12 -59.499 12c-28 0 -52.833 -6.33301 -74.5 -19s-41.167 -29.667 -58.5 -51l-68 94c24.667 28 54.334 50.167 89.001 66.5s72 24.5 112 24.5
c37.333 0 72.333 -7 105 -21s61.334 -33.333 86.001 -58s44 -53.334 58 -86.001s21 -67.667 21 -105v-39c0 -16.667 1 -31 3 -43s6 -21.833 12 -29.5s14.833 -13.334 26.5 -17.001s27.167 -5.5 46.5 -5.5h68v-117h-88c-46 0 -82.333 7.16699 -109 21.5
s-46.334 35.166 -59.001 62.499h-109z" />
    <glyph glyph-name="gini" unicode="&#x686;" horiz-adv-x="602" arabic-form="initial" 
d="M372 -272c0 19.333 -7.16699 36.166 -21.5 50.499s-31.166 21.5 -50.499 21.5s-36.166 -7.16699 -50.499 -21.5s-21.5 -31.166 -21.5 -50.499s7.16699 -36.166 21.5 -50.499s31.166 -21.5 50.499 -21.5s36.166 7.16699 50.499 21.5s21.5 31.166 21.5 50.499zM458 -123
c0 19.333 -7.16699 36.166 -21.5 50.499s-31.166 21.5 -50.499 21.5s-36.166 -7.16699 -50.499 -21.5s-21.5 -31.166 -21.5 -50.499s7.16699 -36.166 21.5 -50.499s31.166 -21.5 50.499 -21.5s36.166 7.16699 50.499 21.5s21.5 31.166 21.5 50.499zM280 -123
c0 19.333 -7.16699 36.166 -21.5 50.499s-31.166 21.5 -50.499 21.5s-36.166 -7.16699 -50.499 -21.5s-21.5 -31.166 -21.5 -50.499s7.16699 -36.166 21.5 -50.499s31.166 -21.5 50.499 -21.5s36.166 7.16699 50.499 21.5s21.5 31.166 21.5 50.499zM411 206
c0 21.333 -3.83691 41.501 -11.5039 60.501s-18.167 35.5 -31.5 49.5s-29.166 25 -47.499 33s-38.166 12 -59.499 12c-28 0 -52.833 -6.33301 -74.5 -19s-41.167 -29.667 -58.5 -51l-68 94c24.667 28 54.334 50.167 89.001 66.5s72 24.5 112 24.5
c37.333 0 72.333 -7 105 -21s61.334 -33.333 86.001 -58s44 -53.334 58 -86.001s21 -67.667 21 -105l-1 -206h-539v117h420v89z" />
    <glyph glyph-name="gmedi" unicode="&#x686;" horiz-adv-x="577" arabic-form="medial" 
d="M372 -272c0 19.333 -7.16699 36.166 -21.5 50.499s-31.166 21.5 -50.499 21.5s-36.166 -7.16699 -50.499 -21.5s-21.5 -31.166 -21.5 -50.499s7.16699 -36.166 21.5 -50.499s31.166 -21.5 50.499 -21.5s36.166 7.16699 50.499 21.5s21.5 31.166 21.5 50.499zM458 -123
c0 19.333 -7.16699 36.166 -21.5 50.499s-31.166 21.5 -50.499 21.5s-36.166 -7.16699 -50.499 -21.5s-21.5 -31.166 -21.5 -50.499s7.16699 -36.166 21.5 -50.499s31.166 -21.5 50.499 -21.5s36.166 7.16699 50.499 21.5s21.5 31.166 21.5 50.499zM280 -123
c0 19.333 -7.16699 36.166 -21.5 50.499s-31.166 21.5 -50.499 21.5s-36.166 -7.16699 -50.499 -21.5s-21.5 -31.166 -21.5 -50.499s7.16699 -36.166 21.5 -50.499s31.166 -21.5 50.499 -21.5s36.166 7.16699 50.499 21.5s21.5 31.166 21.5 50.499zM411 206
c0 21.333 -3.83691 41.501 -11.5039 60.501s-18.167 35.5 -31.5 49.5s-29.166 25 -47.499 33s-38.166 12 -59.499 12c-28 0 -52.833 -6.33301 -74.5 -19s-41.167 -29.667 -58.5 -51l-68 94c24.667 28 54.334 50.167 89.001 66.5s72 24.5 112 24.5
c37.333 0 72.333 -7 105 -21s61.334 -33.333 86.001 -58s44 -53.334 58 -86.001s21 -67.667 21 -105v-89h55v-117h-595v117h420v89z" />
    <glyph glyph-name="jehfina" unicode="&#x698;" horiz-adv-x="445" arabic-form="final" 
d="M155 408l118.998 0.000976562v-216c2 -16.667 6.83301 -30 14.5 -40s16.667 -17.5 27 -22.5s21.333 -8.33301 33 -10s22.834 -2.5 33.501 -2.5h72v-117h-65c-10 0 -20.333 1 -31 3s-21.334 4.66699 -32.001 8s-20.5 7.33301 -29.5 12s-16.5 10 -22.5 16v-25
c0 -39.333 -7 -74.5 -21 -105.5s-33.167 -57.333 -57.5 -79s-52.666 -38.334 -84.999 -50.001s-66.833 -17.5 -103.5 -17.5c-28.667 0 -60 4 -94 12l32 107c25.333 -5.33301 50.333 -8 75 -8c13.333 0 27.833 2.66699 43.5 8s30.334 13.833 44.001 25.5s25 26.167 34 43.5
s13.5 38 13.5 62v396zM132.998 714.001c0 19.333 7.16699 36.166 21.5 50.499s31.166 21.5 50.499 21.5s36.166 -7.16699 50.499 -21.5s21.5 -31.166 21.5 -50.499s-7.16699 -36.166 -21.5 -50.499s-31.166 -21.5 -50.499 -21.5s-36.166 7.16699 -50.499 21.5
s-21.5 31.166 -21.5 50.499zM46.998 565.001c0 19.333 7.16699 36.166 21.5 50.499s31.166 21.5 50.499 21.5s36.166 -7.16699 50.499 -21.5s21.5 -31.166 21.5 -50.499s-7.16699 -36.166 -21.5 -50.499s-31.166 -21.5 -50.499 -21.5s-36.166 7.16699 -50.499 21.5
s-21.5 31.166 -21.5 50.499zM224.998 565.001c0 19.333 7.16699 36.166 21.5 50.499s31.166 21.5 50.499 21.5s36.166 -7.16699 50.499 -21.5s21.5 -31.166 21.5 -50.499s-7.16699 -36.166 -21.5 -50.499s-31.166 -21.5 -50.499 -21.5s-36.166 7.16699 -50.499 21.5
s-21.5 31.166 -21.5 50.499z" />
    <glyph glyph-name="kehehfina" unicode="&#x6a9;" horiz-adv-x="936" arabic-form="final" 
d="M346 0c-43.333 0 -82.834 6.49805 -118.501 19.498s-66.167 32.333 -91.5 58s-45 57.5 -59 95.5s-21 81.667 -21 131v52h119v-47c0 -22.667 2.16699 -45.5 6.5 -68.5s12.833 -43.667 25.5 -62s30.334 -33.166 53.001 -44.499s52 -17 88 -17h228
c36 0 61.5 10.833 76.5 32.5s22.5 58.167 22.5 109.5v485h119v-534c0 -20.667 3.5 -37.167 10.5 -49.5s16 -21.666 27 -27.999s22.833 -10.5 35.5 -12.5s24.667 -3 36 -3h50v-117h-50c-33.333 0 -64.833 8 -94.5 24s-51.167 37.667 -64.5 65
c-17.333 -28 -38.833 -49.833 -64.5 -65.5s-59.167 -23.5 -100.5 -23.5h-233z" />
    <glyph glyph-name="kafini" unicode="&#x6a9;" horiz-adv-x="649" arabic-form="initial" 
d="M48 391l340.001 352.999h154l-297 -304h36c43.333 0 83 -7.5 119 -22.5s66.833 -35.667 92.5 -62s45.667 -57.333 60 -93s21.5 -74.5 21.5 -116.5v-146h-583v117h464v29c0 56.667 -14.833 100.334 -44.5 131.001s-72.834 46 -129.501 46h-233v68z" />
    <glyph glyph-name="kafmedi" unicode="&#x6a9;" horiz-adv-x="671" arabic-form="medial" 
d="M680 0l-688.999 -0.000976562v117h464v29c0 56.667 -14.833 100.334 -44.5 131.001s-72.834 46 -129.501 46h-233v68l340 353h154l-297 -304h36c43.333 0 83 -7.5 119 -22.5s66.833 -35.667 92.5 -62s45.667 -57.333 60 -93s21.5 -74.5 21.5 -116.5v-29h106v-117z" />
    <glyph glyph-name="gaffina" unicode="&#x6af;" horiz-adv-x="940" arabic-form="final" 
d="M346 0c-43.333 0 -82.834 6.49805 -118.501 19.498s-66.167 32.333 -91.5 58s-45 57.5 -59 95.5s-21 81.667 -21 131v52h119v-47c0 -22.667 2.16699 -45.5 6.5 -68.5s12.833 -43.667 25.5 -62s30.334 -33.166 53.001 -44.499s52 -17 88 -17h228
c36 0 61.5 10.833 76.5 32.5s22.5 58.167 22.5 109.5v485h119v-534c0 -20.667 3.5 -37.167 10.5 -49.5s16 -21.666 27 -27.999s22.833 -10.5 35.5 -12.5s24.667 -3 36 -3h50v-117h-50c-33.333 0 -64.833 8 -94.5 24s-51.167 37.667 -64.5 65
c-17.333 -28 -38.833 -49.833 -64.5 -65.5s-59.167 -23.5 -100.5 -23.5h-233z" />
    <glyph glyph-name="gafini" unicode="&#x6af;" horiz-adv-x="649" arabic-form="initial" 
d="M48 391l340.001 352.999h154l-297 -304h36c43.333 0 83 -7.5 119 -22.5s66.833 -35.667 92.5 -62s45.667 -57.333 60 -93s21.5 -74.5 21.5 -116.5v-146h-583v117h464v29c0 56.667 -14.833 100.334 -44.5 131.001s-72.834 46 -129.501 46h-233v68z" />
    <glyph glyph-name="gafmedi" unicode="&#x6af;" horiz-adv-x="671" arabic-form="medial" 
d="M680 0l-688.999 -0.000976562v117h464v29c0 56.667 -14.833 100.334 -44.5 131.001s-72.834 46 -129.501 46h-233v68l340 353h154l-297 -304h36c43.333 0 83 -7.5 119 -22.5s66.833 -35.667 92.5 -62s45.667 -57.333 60 -93s21.5 -74.5 21.5 -116.5v-29h106v-117z" />
    <glyph glyph-name="kirsehini" unicode="&#x649;" horiz-adv-x="358" arabic-form="initial" 
d="M283 186c0 -29.333 -3.33203 -55.501 -9.99902 -78.501s-17.334 -42.5 -32.001 -58.5s-34 -28.167 -58 -36.5s-53 -12.5 -87 -12.5h-105v117h85c19.333 0 34.833 1.83301 46.5 5.5s20.5 9.33398 26.5 17.001s10 17.5 12 29.5s3 26.333 3 43v196h119v-222z" />
    <glyph glyph-name="kirsehmedi" unicode="&#x649;" horiz-adv-x="434" arabic-form="medial" 
d="M393 0c-33.333 0 -64.833 7.99902 -94.5 23.999s-51.167 37.667 -64.5 65c-17.333 -28 -38.833 -49.833 -64.5 -65.5s-59.167 -23.5 -100.5 -23.5h-78v117h75c36 0 61.5 10.833 76.5 32.5s22.5 58.167 22.5 109.5v149h119v-198c0 -20.667 3.5 -37.167 10.5 -49.5
s16 -21.666 27 -27.999s22.833 -10.5 35.5 -12.5s24.667 -3 36 -3h50v-117h-50z" />
    <glyph glyph-name="alefma2sourafina" unicode="&#x6cc;" horiz-adv-x="1138" arabic-form="final" 
d="M584 35c17.333 0 33.8398 1.99609 49.5068 5.99609s28.5 9.83301 38.5 17.5s16.667 16.834 20 27.501s1 22.667 -7 36l-102 172c-14.667 24.667 -20.334 48 -17.001 70s12.666 41.333 27.999 58s34.833 29.834 58.5 39.501s48.5 14.5 74.5 14.5c16 0 33 -1.16699 51 -3.5
s35.167 -6.5 51.5 -12.5s31.333 -14 45 -24s24.5 -22.667 32.5 -38l98 -191c6 -12 12.167 -23.333 18.5 -34s13.666 -20.167 21.999 -28.5s18 -15 29 -20s23.833 -7.5 38.5 -7.5h34v-117h-47c-20 0 -38.333 3.16699 -55 9.5s-31.667 14.666 -45 24.999
s-25.333 22.5 -36 36.5s-20.334 29 -29.001 45c-2 4 -3.66699 7 -5 9s-5 8 -11 18l-28 49l-56 102l-14 25c-4.66699 8 -10 15.167 -16 21.5s-12.833 11.5 -20.5 15.5s-16.834 6 -27.501 6c-20.667 0 -35.334 -2.83301 -44.001 -8.5s-13.334 -13.334 -14.001 -23.001
s2 -21 8 -34s13.667 -26.833 23 -41.5l62 -97c15.333 -25.333 22.666 -52.166 21.999 -80.499s-9 -54.166 -25 -77.499s-39.667 -42.666 -71 -57.999s-70 -23 -116 -23h-256c-43.333 0 -82.833 6.5 -118.5 19.5s-66.167 32.333 -91.5 58s-45 57.5 -59 95.5
s-21 81.667 -21 131v23h119v-18c0 -22.667 2.16699 -45.5 6.5 -68.5s12.833 -43.667 25.5 -62s30.334 -33.166 53.001 -44.499s52 -17 88 -17z" />
    <glyph glyph-name="yaini" unicode="&#x6cc;" horiz-adv-x="428" arabic-form="initial" 
d="M352 186c0 -29.333 -3.33203 -55.501 -9.99902 -78.501s-17.334 -42.5 -32.001 -58.5s-34 -28.167 -58 -36.5s-53 -12.5 -87 -12.5h-174v117h154c19.333 0 34.833 1.83301 46.5 5.5s20.5 9.33398 26.5 17.001s10 17.5 12 29.5s3 26.333 3 43v196h119v-222z
M-19.999 -158.001c0 -19.333 7.16699 -36.166 21.5 -50.499s31.166 -21.5 50.499 -21.5s36.166 7.16699 50.499 21.5s21.5 31.166 21.5 50.499s-7.16699 36.166 -21.5 50.499s-31.166 21.5 -50.499 21.5s-36.166 -7.16699 -50.499 -21.5s-21.5 -31.166 -21.5 -50.499z
M158.001 -158.001c0 -19.333 7.16699 -36.166 21.5 -50.499s31.166 -21.5 50.499 -21.5s36.166 7.16699 50.499 21.5s21.5 31.166 21.5 50.499s-7.16699 36.166 -21.5 50.499s-31.166 21.5 -50.499 21.5s-36.166 -7.16699 -50.499 -21.5s-21.5 -31.166 -21.5 -50.499z" />
    <glyph glyph-name="yamedi" unicode="&#x6cc;" horiz-adv-x="481" arabic-form="medial" 
d="M424 0c-33.333 0 -64.833 7.99902 -94.5 23.999s-51.167 37.667 -64.5 65c-17.333 -28 -38.833 -49.833 -64.5 -65.5s-59.167 -23.5 -100.5 -23.5h-109v117h106c36 0 61.5 10.833 76.5 32.5s22.5 58.167 22.5 109.5v149h119v-198c0 -20.667 3.5 -37.167 10.5 -49.5
s16 -21.666 27 -27.999s22.833 -10.5 35.5 -12.5s24.667 -3 36 -3h68v-117h-68zM91 -158.001c0 -19.333 7.16699 -36.166 21.5 -50.499s31.166 -21.5 50.499 -21.5s36.166 7.16699 50.499 21.5s21.5 31.166 21.5 50.499s-7.16699 36.166 -21.5 50.499
s-31.166 21.5 -50.499 21.5s-36.166 -7.16699 -50.499 -21.5s-21.5 -31.166 -21.5 -50.499zM269 -158.001c0 -19.333 7.16699 -36.166 21.5 -50.499s31.166 -21.5 50.499 -21.5s36.166 7.16699 50.499 21.5s21.5 31.166 21.5 50.499s-7.16699 36.166 -21.5 50.499
s-31.166 21.5 -50.499 21.5s-36.166 -7.16699 -50.499 -21.5s-21.5 -31.166 -21.5 -50.499z" />
    <glyph glyph-name="alefmaddaabovefina" unicode="&#x622;" horiz-adv-x="358" arabic-form="final" 
d="M75 744l119.001 0.000976562v-532c0 -16.667 1 -31 3 -43s6 -21.833 12 -29.5s14.833 -13.334 26.5 -17.001s27.167 -5.5 46.5 -5.5h85v-117h-105c-34 0 -63 4.16699 -87 12.5s-43.333 20.5 -58 36.5s-25.334 35.5 -32.001 58.5s-10 49.167 -10 78.5v558z
M-98.999 919.001h76.002v-41c0 -12.667 3.5 -22.834 10.5 -30.501s17.833 -11.5 32.5 -11.5c12 0 26.833 4 44.5 12l57 26c20.333 9.33301 41 18 62 26s41.167 12 60.5 12c16 0 31 -2.33301 45 -7s26.5 -12 37.5 -22s19.667 -22.667 26 -38s9.5 -33.666 9.5 -54.999v-41h-70
v41c0 15.333 -4.33301 27 -13 35s-20.334 12 -35.001 12c-12.667 0 -27.667 -4 -45 -12l-56 -27c-20 -10 -40.667 -19 -62 -27s-42 -12 -62 -12s-37.5 3.16699 -52.5 9.5s-27.333 15 -37 26s-16.834 23.667 -21.501 38s-7 29.5 -7 45.5v41z" />
    <glyph glyph-name="alefhamzaabovefina" unicode="&#x623;" horiz-adv-x="358" arabic-form="final" 
d="M75 744l119.001 0.000976562v-532c0 -16.667 1 -31 3 -43s6 -21.833 12 -29.5s14.833 -13.334 26.5 -17.001s27.167 -5.5 46.5 -5.5h85v-117h-105c-34 0 -63 4.16699 -87 12.5s-43.333 20.5 -58 36.5s-25.334 35.5 -32.001 58.5s-10 49.167 -10 78.5v558zM31.001 845.001
l41 0.00195312c-7.33301 7.33301 -11.666 15.666 -12.999 24.999s-2 17 -2 23c0 25.333 9.16699 47.333 27.5 66s42.166 28 71.499 28c15.333 0 30.833 -3.83301 46.5 -11.5s27.5 -17.834 35.5 -30.501l-38 -24c-5.33301 6 -11 10 -17 12s-12.333 3.33301 -19 4
c-14 0.666992 -25.5 -3 -34.5 -11s-13.5 -18.667 -13.5 -32c0 -15.333 6.5 -27.333 19.5 -36s28.167 -13 45.5 -13h53v-52h-203v52z" />
    <glyph glyph-name="wawhamzafina" unicode="&#x624;" horiz-adv-x="610" arabic-form="final" 
d="M48 233c0 32.667 6.16699 63.334 18.5 92.001s29 53.5 50 74.5s45.667 37.667 74 50s58.833 18.5 91.5 18.5c34.667 0 65.834 -6.16699 93.501 -18.5s51 -29 70 -50s33.667 -45.833 44 -74.5s15.5 -59.334 15.5 -92.001v-116h114v-117h-114
c-2 -36.667 -10 -69.667 -24 -99s-33.667 -54.333 -59 -75s-55.833 -36.5 -91.5 -47.5s-75.834 -16.5 -120.501 -16.5c-28.667 0 -60 4 -94 12l32 107c25.333 -5.33301 50.333 -8 75 -8c22 0 42.5 2.5 61.5 7.5s35.667 12.833 50 23.5s26 23.834 35 39.501
s14.167 34.5 15.5 56.5l-103 -1c-32.667 0 -63.167 6 -91.5 18s-53 28.667 -74 50s-37.667 46.166 -50 74.499s-18.5 58.833 -18.5 91.5zM159 233c0 -17.333 3.16797 -33.001 9.50098 -47.001s15.166 -26.167 26.499 -36.5s24.333 -18.333 39 -24s30.667 -8.5 48 -8.5h104
v121c0 16.667 -2.33301 32.167 -7 46.5s-11.334 26.833 -20.001 37.5s-19.5 19.167 -32.5 25.5s-27.833 9.5 -44.5 9.5c-17.333 0 -33.333 -3.16699 -48 -9.5s-27.667 -15.166 -39 -26.499s-20.166 -24.5 -26.499 -39.5s-9.5 -31.167 -9.5 -48.5zM156.216 591.696
l49.7861 -0.000976562c-8.90527 8.91016 -14.167 19.0352 -15.7861 30.376s-2.42871 20.6562 -2.42871 27.9463c0 30.7803 11.1309 57.5107 33.3936 80.1914c22.2617 22.6807 51.2021 34.0205 86.8223 34.0205c18.6191 0 37.4404 -4.65723 56.4639 -13.9727
c19.0244 -9.31543 33.3936 -21.668 43.1084 -37.0586l-46.1436 -29.1602c-6.47656 7.29004 -13.3574 12.1504 -20.6436 14.5811c-7.28516 2.43066 -14.9756 4.05078 -23.0713 4.86035c-17 0.80957 -30.9639 -3.64551 -41.8926 -13.3652
c-10.9287 -9.7207 -16.3936 -22.6807 -16.3936 -38.8809c0 -18.6309 7.89258 -33.2109 23.6787 -43.7412s34.2031 -15.7959 55.251 -15.7959h64.3574v-63.1807h-246.502v63.1807z" />
    <glyph glyph-name="alefhamzabelowfina" unicode="&#x625;" horiz-adv-x="358" arabic-form="final" 
d="M75 744l119.001 0.000976562v-532c0 -16.667 1 -31 3 -43s6 -21.833 12 -29.5s14.833 -13.334 26.5 -17.001s27.167 -5.5 46.5 -5.5h85v-117h-105c-34 0 -63 4.16699 -87 12.5s-43.333 20.5 -58 36.5s-25.334 35.5 -32.001 58.5s-10 49.167 -10 78.5v558z
M47.001 -188.999l41 0.00195312c-7.33301 7.33301 -11.666 15.666 -12.999 24.999s-2 17 -2 23c0 25.333 9.16699 47.333 27.5 66s42.166 28 71.499 28c15.333 0 30.833 -3.83301 46.5 -11.5s27.5 -17.834 35.5 -30.501l-38 -24c-5.33301 6 -11 10 -17 12
s-12.333 3.33301 -19 4c-14 0.666992 -25.5 -3 -34.5 -11s-13.5 -18.667 -13.5 -32c0 -15.333 6.5 -27.333 19.5 -36s28.167 -13 45.5 -13h53v-52h-203v52z" />
    <glyph glyph-name="hamzakirsehfina" unicode="&#x626;" horiz-adv-x="1138" arabic-form="final" 
d="M584 35c17.333 0 33.8398 1.99609 49.5068 5.99609s28.5 9.83301 38.5 17.5s16.667 16.834 20 27.501s1 22.667 -7 36l-102 172c-14.667 24.667 -20.334 48 -17.001 70s12.666 41.333 27.999 58s34.833 29.834 58.5 39.501s48.5 14.5 74.5 14.5c16 0 33 -1.16699 51 -3.5
s35.167 -6.5 51.5 -12.5s31.333 -14 45 -24s24.5 -22.667 32.5 -38l98 -191c6 -12 12.167 -23.333 18.5 -34s13.666 -20.167 21.999 -28.5s18 -15 29 -20s23.833 -7.5 38.5 -7.5h34v-117h-47c-20 0 -38.333 3.16699 -55 9.5s-31.667 14.666 -45 24.999
s-25.333 22.5 -36 36.5s-20.334 29 -29.001 45c-2 4 -3.66699 7 -5 9s-5 8 -11 18l-28 49l-56 102l-14 25c-4.66699 8 -10 15.167 -16 21.5s-12.833 11.5 -20.5 15.5s-16.834 6 -27.501 6c-20.667 0 -35.334 -2.83301 -44.001 -8.5s-13.334 -13.334 -14.001 -23.001
s2 -21 8 -34s13.667 -26.833 23 -41.5l62 -97c15.333 -25.333 22.666 -52.166 21.999 -80.499s-9 -54.166 -25 -77.499s-39.667 -42.666 -71 -57.999s-70 -23 -116 -23h-256c-43.333 0 -82.833 6.5 -118.5 19.5s-66.167 32.333 -91.5 58s-45 57.5 -59 95.5
s-21 81.667 -21 131v23h119v-18c0 -22.667 2.16699 -45.5 6.5 -68.5s12.833 -43.667 25.5 -62s30.334 -33.166 53.001 -44.499s52 -17 88 -17zM107.222 362.693l49.7861 -0.000976562c-8.90527 8.91016 -14.167 19.0352 -15.7861 30.376s-2.42871 20.6562 -2.42871 27.9463
c0 30.7803 11.1309 57.5107 33.3936 80.1914c22.2617 22.6807 51.2021 34.0205 86.8223 34.0205c18.6191 0 37.4404 -4.65723 56.4639 -13.9727c19.0244 -9.31543 33.3936 -21.668 43.1084 -37.0586l-46.1436 -29.1602c-6.47656 7.29004 -13.3574 12.1504 -20.6436 14.5811
c-7.28516 2.43066 -14.9756 4.05078 -23.0713 4.86035c-17 0.80957 -30.9639 -3.64551 -41.8926 -13.3652c-10.9287 -9.7207 -16.3936 -22.6807 -16.3936 -38.8809c0 -18.6309 7.89258 -33.2109 23.6787 -43.7412s34.2031 -15.7959 55.251 -15.7959h64.3574v-63.1807
h-246.502v63.1807z" />
    <glyph glyph-name="hamzakirsehini" unicode="&#x626;" horiz-adv-x="358" arabic-form="initial" 
d="M283 186c0 -29.333 -3.33203 -55.501 -9.99902 -78.501s-17.334 -42.5 -32.001 -58.5s-34 -28.167 -58 -36.5s-53 -12.5 -87 -12.5h-105v117h85c19.333 0 34.833 1.83301 46.5 5.5s20.5 9.33398 26.5 17.001s10 17.5 12 29.5s3 26.333 3 43v196h119v-222z
M39.2158 591.696l49.7861 -0.000976562c-8.90527 8.91016 -14.167 19.0352 -15.7861 30.376s-2.42871 20.6562 -2.42871 27.9463c0 30.7803 11.1309 57.5107 33.3936 80.1914c22.2617 22.6807 51.2021 34.0205 86.8223 34.0205c18.6191 0 37.4404 -4.65723 56.4639 -13.9727
c19.0244 -9.31543 33.3936 -21.668 43.1084 -37.0586l-46.1436 -29.1602c-6.47656 7.29004 -13.3574 12.1504 -20.6436 14.5811c-7.28516 2.43066 -14.9756 4.05078 -23.0713 4.86035c-17 0.80957 -30.9639 -3.64551 -41.8926 -13.3652
c-10.9287 -9.7207 -16.3936 -22.6807 -16.3936 -38.8809c0 -18.6309 7.89258 -33.2109 23.6787 -43.7412s34.2031 -15.7959 55.251 -15.7959h64.3574v-63.1807h-246.502v63.1807z" />
    <glyph glyph-name="hamzakirsehmedi" unicode="&#x626;" horiz-adv-x="434" arabic-form="medial" 
d="M393 0c-33.333 0 -64.833 7.99902 -94.5 23.999s-51.167 37.667 -64.5 65c-17.333 -28 -38.833 -49.833 -64.5 -65.5s-59.167 -23.5 -100.5 -23.5h-78v117h75c36 0 61.5 10.833 76.5 32.5s22.5 58.167 22.5 109.5v149h119v-198c0 -20.667 3.5 -37.167 10.5 -49.5
s16 -21.666 27 -27.999s22.833 -10.5 35.5 -12.5s24.667 -3 36 -3h50v-117h-50zM81.2148 591.696l49.7861 -0.000976562c-8.90527 8.91016 -14.167 19.0352 -15.7861 30.376s-2.42871 20.6562 -2.42871 27.9463c0 30.7803 11.1309 57.5107 33.3936 80.1914
c22.2617 22.6807 51.2021 34.0205 86.8223 34.0205c18.6191 0 37.4404 -4.65723 56.4639 -13.9727c19.0244 -9.31543 33.3936 -21.668 43.1084 -37.0586l-46.1436 -29.1602c-6.47656 7.29004 -13.3574 12.1504 -20.6436 14.5811
c-7.28516 2.43066 -14.9756 4.05078 -23.0713 4.86035c-17 0.80957 -30.9639 -3.64551 -41.8926 -13.3652c-10.9287 -9.7207 -16.3936 -22.6807 -16.3936 -38.8809c0 -18.6309 7.89258 -33.2109 23.6787 -43.7412s34.2031 -15.7959 55.251 -15.7959h64.3574v-63.1807
h-246.502v63.1807z" />
    <glyph glyph-name="aleffina" unicode="&#x627;" horiz-adv-x="358" arabic-form="final" 
d="M75 744l119.001 0.000976562v-532c0 -16.667 1 -31 3 -43s6 -21.833 12 -29.5s14.833 -13.334 26.5 -17.001s27.167 -5.5 46.5 -5.5h85v-117h-105c-34 0 -63 4.16699 -87 12.5s-43.333 20.5 -58 36.5s-25.334 35.5 -32.001 58.5s-10 49.167 -10 78.5v558z" />
    <glyph glyph-name="behfina" unicode="&#x628;" horiz-adv-x="1062" arabic-form="final" 
d="M365 0c-43.333 0 -82.834 6.49805 -118.501 19.498s-66.167 32.333 -91.5 58s-45 57.5 -59 95.5s-21 81.667 -21 131v104h119v-99c0 -22.667 2.16699 -45.5 6.5 -68.5s12.833 -43.667 25.5 -62s30.334 -33.166 53.001 -44.499s52 -17 88 -17h327
c36 0 61.5 10.833 76.5 32.5s22.5 58.167 22.5 109.5v149h119v-198c0 -20.667 3.5 -37.167 10.5 -49.5s16 -21.666 27 -27.999s22.833 -10.5 35.5 -12.5s24.667 -3 36 -3h50v-117h-50c-33.333 0 -64.833 8 -94.5 24s-51.167 37.667 -64.5 65
c-17.333 -28 -38.833 -49.833 -64.5 -65.5s-59.167 -23.5 -100.5 -23.5h-332zM433.999 -157.002c0 19.333 7.16699 36.166 21.5 50.499s31.166 21.5 50.499 21.5s36.166 -7.16699 50.499 -21.5s21.5 -31.166 21.5 -50.499s-7.16699 -36.166 -21.5 -50.499
s-31.166 -21.5 -50.499 -21.5s-36.166 7.16699 -50.499 21.5s-21.5 31.166 -21.5 50.499z" />
    <glyph glyph-name="behini" unicode="&#x628;" horiz-adv-x="358" arabic-form="initial" 
d="M283 186c0 -29.333 -3.33203 -55.501 -9.99902 -78.501s-17.334 -42.5 -32.001 -58.5s-34 -28.167 -58 -36.5s-53 -12.5 -87 -12.5h-105v117h85c19.333 0 34.833 1.83301 46.5 5.5s20.5 9.33398 26.5 17.001s10 17.5 12 29.5s3 26.333 3 43v196h119v-222z
M23.001 -157.001c0 19.333 7.16699 36.166 21.5 50.499s31.166 21.5 50.499 21.5s36.166 -7.16699 50.499 -21.5s21.5 -31.166 21.5 -50.499s-7.16699 -36.166 -21.5 -50.499s-31.166 -21.5 -50.499 -21.5s-36.166 7.16699 -50.499 21.5s-21.5 31.166 -21.5 50.499z" />
    <glyph glyph-name="behmedi" unicode="&#x628;" horiz-adv-x="434" arabic-form="medial" 
d="M393 0c-33.333 0 -64.833 7.99902 -94.5 23.999s-51.167 37.667 -64.5 65c-17.333 -28 -38.833 -49.833 -64.5 -65.5s-59.167 -23.5 -100.5 -23.5h-78v117h75c36 0 61.5 10.833 76.5 32.5s22.5 58.167 22.5 109.5v149h119v-198c0 -20.667 3.5 -37.167 10.5 -49.5
s16 -21.666 27 -27.999s22.833 -10.5 35.5 -12.5s24.667 -3 36 -3h50v-117h-50zM158 -157.001c0 19.333 7.16699 36.166 21.5 50.499s31.166 21.5 50.499 21.5s36.166 -7.16699 50.499 -21.5s21.5 -31.166 21.5 -50.499s-7.16699 -36.166 -21.5 -50.499
s-31.166 -21.5 -50.499 -21.5s-36.166 7.16699 -50.499 21.5s-21.5 31.166 -21.5 50.499z" />
    <glyph glyph-name="tehmarboutafina" unicode="&#x629;" horiz-adv-x="679" arabic-form="final" 
d="M170 234c0 -18 3.33301 -34.667 10 -50s15.667 -28.666 27 -39.999s24.666 -20.333 39.999 -27s32 -10 50 -10s34.667 3.33301 50 10s28.666 15.667 39.999 27s20.333 24.666 27 39.999s10 32 10 50s-3.33301 34.667 -10 50s-15.667 28.666 -27 39.999
s-24.666 20.333 -39.999 27s-32 10 -50 10s-34.667 -3.33301 -50 -10s-28.666 -15.667 -39.999 -27s-20.333 -24.666 -27 -39.999s-10 -32 -10 -50zM539 220c0 -18 3.66797 -33.499 11.001 -46.499s16.5 -23.667 27.5 -32s23 -14.5 36 -18.5s25.167 -6 36.5 -6h38v-117h-38
c-33.333 0 -64.833 8 -94.5 24s-51.167 37.667 -64.5 65c-22 -29.333 -49.833 -52.833 -83.5 -70.5s-70.5 -26.5 -110.5 -26.5c-33.333 0 -64.666 6.33301 -93.999 19s-55 30 -77 52s-39.333 47.667 -52 77s-19 60.666 -19 93.999s6.33301 64.666 19 93.999s30 55 52 77
s47.667 39.333 77 52s60.666 19 93.999 19s64.666 -6.33301 93.999 -19s55 -30 77 -52s39.333 -47.667 52 -77s19 -60.666 19 -93.999v-14zM122.001 620.001c0 19.333 7.16699 36.166 21.5 50.499s31.166 21.5 50.499 21.5s36.166 -7.16699 50.499 -21.5
s21.5 -31.166 21.5 -50.499s-7.16699 -36.166 -21.5 -50.499s-31.166 -21.5 -50.499 -21.5s-36.166 7.16699 -50.499 21.5s-21.5 31.166 -21.5 50.499zM300.001 620.001c0 19.333 7.16699 36.166 21.5 50.499s31.166 21.5 50.499 21.5s36.166 -7.16699 50.499 -21.5
s21.5 -31.166 21.5 -50.499s-7.16699 -36.166 -21.5 -50.499s-31.166 -21.5 -50.499 -21.5s-36.166 7.16699 -50.499 21.5s-21.5 31.166 -21.5 50.499z" />
    <glyph glyph-name="tafina" unicode="&#x62a;" horiz-adv-x="1062" arabic-form="final" 
d="M365 0c-43.333 0 -82.834 6.49805 -118.501 19.498s-66.167 32.333 -91.5 58s-45 57.5 -59 95.5s-21 81.667 -21 131v104h119v-99c0 -22.667 2.16699 -45.5 6.5 -68.5s12.833 -43.667 25.5 -62s30.334 -33.166 53.001 -44.499s52 -17 88 -17h327
c36 0 61.5 10.833 76.5 32.5s22.5 58.167 22.5 109.5v149h119v-198c0 -20.667 3.5 -37.167 10.5 -49.5s16 -21.666 27 -27.999s22.833 -10.5 35.5 -12.5s24.667 -3 36 -3h50v-117h-50c-33.333 0 -64.833 8 -94.5 24s-51.167 37.667 -64.5 65
c-17.333 -28 -38.833 -49.833 -64.5 -65.5s-59.167 -23.5 -100.5 -23.5h-332zM334.999 619.998c0 19.333 7.16699 36.166 21.5 50.499s31.166 21.5 50.499 21.5s36.166 -7.16699 50.499 -21.5s21.5 -31.166 21.5 -50.499s-7.16699 -36.166 -21.5 -50.499
s-31.166 -21.5 -50.499 -21.5s-36.166 7.16699 -50.499 21.5s-21.5 31.166 -21.5 50.499zM512.999 619.998c0 19.333 7.16699 36.166 21.5 50.499s31.166 21.5 50.499 21.5s36.166 -7.16699 50.499 -21.5s21.5 -31.166 21.5 -50.499s-7.16699 -36.166 -21.5 -50.499
s-31.166 -21.5 -50.499 -21.5s-36.166 7.16699 -50.499 21.5s-21.5 31.166 -21.5 50.499z" />
    <glyph glyph-name="taini" unicode="&#x62a;" horiz-adv-x="358" arabic-form="initial" 
d="M283 186c0 -29.333 -3.33203 -55.501 -9.99902 -78.501s-17.334 -42.5 -32.001 -58.5s-34 -28.167 -58 -36.5s-53 -12.5 -87 -12.5h-105v117h85c19.333 0 34.833 1.83301 46.5 5.5s20.5 9.33398 26.5 17.001s10 17.5 12 29.5s3 26.333 3 43v196h119v-222z
M2.00098 619.999c0 19.333 7.16699 36.166 21.5 50.499s31.166 21.5 50.499 21.5s36.166 -7.16699 50.499 -21.5s21.5 -31.166 21.5 -50.499s-7.16699 -36.166 -21.5 -50.499s-31.166 -21.5 -50.499 -21.5s-36.166 7.16699 -50.499 21.5s-21.5 31.166 -21.5 50.499z
M180.001 619.999c0 19.333 7.16699 36.166 21.5 50.499s31.166 21.5 50.499 21.5s36.166 -7.16699 50.499 -21.5s21.5 -31.166 21.5 -50.499s-7.16699 -36.166 -21.5 -50.499s-31.166 -21.5 -50.499 -21.5s-36.166 7.16699 -50.499 21.5s-21.5 31.166 -21.5 50.499z" />
    <glyph glyph-name="tamedi" unicode="&#x62a;" horiz-adv-x="434" arabic-form="medial" 
d="M393 0c-33.333 0 -64.833 7.99902 -94.5 23.999s-51.167 37.667 -64.5 65c-17.333 -28 -38.833 -49.833 -64.5 -65.5s-59.167 -23.5 -100.5 -23.5h-78v117h75c36 0 61.5 10.833 76.5 32.5s22.5 58.167 22.5 109.5v149h119v-198c0 -20.667 3.5 -37.167 10.5 -49.5
s16 -21.666 27 -27.999s22.833 -10.5 35.5 -12.5s24.667 -3 36 -3h50v-117h-50zM68 619.999c0 19.333 7.16699 36.166 21.5 50.499s31.166 21.5 50.499 21.5s36.166 -7.16699 50.499 -21.5s21.5 -31.166 21.5 -50.499s-7.16699 -36.166 -21.5 -50.499
s-31.166 -21.5 -50.499 -21.5s-36.166 7.16699 -50.499 21.5s-21.5 31.166 -21.5 50.499zM246 619.999c0 19.333 7.16699 36.166 21.5 50.499s31.166 21.5 50.499 21.5s36.166 -7.16699 50.499 -21.5s21.5 -31.166 21.5 -50.499s-7.16699 -36.166 -21.5 -50.499
s-31.166 -21.5 -50.499 -21.5s-36.166 7.16699 -50.499 21.5s-21.5 31.166 -21.5 50.499z" />
    <glyph glyph-name="thafina" unicode="&#x62b;" horiz-adv-x="1062" arabic-form="final" 
d="M365 0c-43.333 0 -82.834 6.49805 -118.501 19.498s-66.167 32.333 -91.5 58s-45 57.5 -59 95.5s-21 81.667 -21 131v104h119v-99c0 -22.667 2.16699 -45.5 6.5 -68.5s12.833 -43.667 25.5 -62s30.334 -33.166 53.001 -44.499s52 -17 88 -17h327
c36 0 61.5 10.833 76.5 32.5s22.5 58.167 22.5 109.5v149h119v-198c0 -20.667 3.5 -37.167 10.5 -49.5s16 -21.666 27 -27.999s22.833 -10.5 35.5 -12.5s24.667 -3 36 -3h50v-117h-50c-33.333 0 -64.833 8 -94.5 24s-51.167 37.667 -64.5 65
c-17.333 -28 -38.833 -49.833 -64.5 -65.5s-59.167 -23.5 -100.5 -23.5h-332zM426.999 769.998c0 19.333 7.16699 36.166 21.5 50.499s31.166 21.5 50.499 21.5s36.166 -7.16699 50.499 -21.5s21.5 -31.166 21.5 -50.499s-7.16699 -36.166 -21.5 -50.499
s-31.166 -21.5 -50.499 -21.5s-36.166 7.16699 -50.499 21.5s-21.5 31.166 -21.5 50.499zM340.999 620.998c0 19.333 7.16699 36.166 21.5 50.499s31.166 21.5 50.499 21.5s36.166 -7.16699 50.499 -21.5s21.5 -31.166 21.5 -50.499s-7.16699 -36.166 -21.5 -50.499
s-31.166 -21.5 -50.499 -21.5s-36.166 7.16699 -50.499 21.5s-21.5 31.166 -21.5 50.499zM518.999 620.998c0 19.333 7.16699 36.166 21.5 50.499s31.166 21.5 50.499 21.5s36.166 -7.16699 50.499 -21.5s21.5 -31.166 21.5 -50.499s-7.16699 -36.166 -21.5 -50.499
s-31.166 -21.5 -50.499 -21.5s-36.166 7.16699 -50.499 21.5s-21.5 31.166 -21.5 50.499z" />
    <glyph glyph-name="thaini" unicode="&#x62b;" horiz-adv-x="358" arabic-form="initial" 
d="M283 186c0 -29.333 -3.33203 -55.501 -9.99902 -78.501s-17.334 -42.5 -32.001 -58.5s-34 -28.167 -58 -36.5s-53 -12.5 -87 -12.5h-105v117h85c19.333 0 34.833 1.83301 46.5 5.5s20.5 9.33398 26.5 17.001s10 17.5 12 29.5s3 26.333 3 43v196h119v-222zM88.001 769.999
c0 19.333 7.16699 36.166 21.5 50.499s31.166 21.5 50.499 21.5s36.166 -7.16699 50.499 -21.5s21.5 -31.166 21.5 -50.499s-7.16699 -36.166 -21.5 -50.499s-31.166 -21.5 -50.499 -21.5s-36.166 7.16699 -50.499 21.5s-21.5 31.166 -21.5 50.499zM2.00098 620.999
c0 19.333 7.16699 36.166 21.5 50.499s31.166 21.5 50.499 21.5s36.166 -7.16699 50.499 -21.5s21.5 -31.166 21.5 -50.499s-7.16699 -36.166 -21.5 -50.499s-31.166 -21.5 -50.499 -21.5s-36.166 7.16699 -50.499 21.5s-21.5 31.166 -21.5 50.499zM180.001 620.999
c0 19.333 7.16699 36.166 21.5 50.499s31.166 21.5 50.499 21.5s36.166 -7.16699 50.499 -21.5s21.5 -31.166 21.5 -50.499s-7.16699 -36.166 -21.5 -50.499s-31.166 -21.5 -50.499 -21.5s-36.166 7.16699 -50.499 21.5s-21.5 31.166 -21.5 50.499z" />
    <glyph glyph-name="thamedi" unicode="&#x62b;" horiz-adv-x="483" arabic-form="medial" 
d="M424 0c-33.333 0 -64.833 7.99902 -94.5 23.999s-51.167 37.667 -64.5 65c-17.333 -28 -38.833 -49.833 -64.5 -65.5s-59.167 -23.5 -100.5 -23.5h-109v117h106c36 0 61.5 10.833 76.5 32.5s22.5 58.167 22.5 109.5v149h119v-198c0 -20.667 3.5 -37.167 10.5 -49.5
s16 -21.666 27 -27.999s22.833 -10.5 35.5 -12.5s24.667 -3 36 -3h68v-117h-68zM164 769.999c0 19.333 7.16699 36.166 21.5 50.499s31.166 21.5 50.499 21.5s36.166 -7.16699 50.499 -21.5s21.5 -31.166 21.5 -50.499s-7.16699 -36.166 -21.5 -50.499
s-31.166 -21.5 -50.499 -21.5s-36.166 7.16699 -50.499 21.5s-21.5 31.166 -21.5 50.499zM78 620.999c0 19.333 7.16699 36.166 21.5 50.499s31.166 21.5 50.499 21.5s36.166 -7.16699 50.499 -21.5s21.5 -31.166 21.5 -50.499s-7.16699 -36.166 -21.5 -50.499
s-31.166 -21.5 -50.499 -21.5s-36.166 7.16699 -50.499 21.5s-21.5 31.166 -21.5 50.499zM256 620.999c0 19.333 7.16699 36.166 21.5 50.499s31.166 21.5 50.499 21.5s36.166 -7.16699 50.499 -21.5s21.5 -31.166 21.5 -50.499s-7.16699 -36.166 -21.5 -50.499
s-31.166 -21.5 -50.499 -21.5s-36.166 7.16699 -50.499 21.5s-21.5 31.166 -21.5 50.499z" />
    <glyph glyph-name="jeemfina" unicode="&#x62c;" horiz-adv-x="791" arabic-form="final" 
d="M435 84c-27.333 0 -53.3398 -0.994141 -78.0068 -2.99414s-46.167 -6.83301 -64.5 -14.5s-33 -19.5 -44 -35.5s-16.5 -38 -16.5 -66c0 -18 2.83301 -35.333 8.5 -52s14.5 -31.334 26.5 -44.001s27 -22.667 45 -30s39.333 -11 64 -11c22.667 0 46.334 4.83301 71.001 14.5
s46.334 25.5 65.001 47.5l87 -81c-22.667 -27.333 -52.167 -50.833 -88.5 -70.5s-80.166 -29.5 -131.499 -29.5c-37.333 0 -72.833 4.5 -106.5 13.5s-63.5 23.833 -89.5 44.5s-46.667 47.667 -62 81s-23 74.666 -23 123.999c0 20.667 4.83301 44.167 14.5 70.5
s24.334 51.166 44.001 74.499s44.667 43 75 59s66.5 24 108.5 24h114h70v51c0 21.333 -3.83301 41.5 -11.5 60.5s-18.167 35.5 -31.5 49.5s-29.166 25 -47.499 33s-38.166 12 -59.499 12c-28 0 -52.833 -6.33301 -74.5 -19s-41.167 -29.667 -58.5 -51l-68 94
c24.667 28 54.334 50.167 89.001 66.5s72 24.5 112 24.5c37.333 0 72.333 -7 105 -21s61.334 -33.333 86.001 -58s44 -53.334 58 -86.001s21 -67.667 21 -105v-39c0 -16.667 1 -31 3 -43s6 -21.833 12 -29.5s14.833 -13.334 26.5 -17.001s27.167 -5.5 46.5 -5.5h68v-117h-88
c-46 0 -82.333 7.16699 -109 21.5s-46.334 35.166 -59.001 62.499h-109zM318.993 -27.9941c0 19.333 7.16699 36.166 21.5 50.499s31.166 21.5 50.499 21.5s36.166 -7.16699 50.499 -21.5s21.5 -31.166 21.5 -50.499s-7.16699 -36.166 -21.5 -50.499
s-31.166 -21.5 -50.499 -21.5s-36.166 7.16699 -50.499 21.5s-21.5 31.166 -21.5 50.499z" />
    <glyph glyph-name="jeemini" unicode="&#x62c;" horiz-adv-x="596" arabic-form="initial" 
d="M411 206c0 21.333 -3.83691 41.501 -11.5039 60.501s-18.167 35.5 -31.5 49.5s-29.166 25 -47.499 33s-38.166 12 -59.499 12c-28 0 -52.833 -6.33301 -74.5 -19s-41.167 -29.667 -58.5 -51l-68 94c24.667 28 54.334 50.167 89.001 66.5s72 24.5 112 24.5
c37.333 0 72.333 -7 105 -21s61.334 -33.333 86.001 -58s44 -53.334 58 -86.001s21 -67.667 21 -105l-1 -206h-539v117h420v89zM193.996 -156.999c0 19.333 7.16699 36.166 21.5 50.499s31.166 21.5 50.499 21.5s36.166 -7.16699 50.499 -21.5s21.5 -31.166 21.5 -50.499
s-7.16699 -36.166 -21.5 -50.499s-31.166 -21.5 -50.499 -21.5s-36.166 7.16699 -50.499 21.5s-21.5 31.166 -21.5 50.499z" />
    <glyph glyph-name="jeemmedi" unicode="&#x62c;" horiz-adv-x="577" arabic-form="medial" 
d="M411 206c0 21.333 -3.83691 41.501 -11.5039 60.501s-18.167 35.5 -31.5 49.5s-29.166 25 -47.499 33s-38.166 12 -59.499 12c-28 0 -52.833 -6.33301 -74.5 -19s-41.167 -29.667 -58.5 -51l-68 94c24.667 28 54.334 50.167 89.001 66.5s72 24.5 112 24.5
c37.333 0 72.333 -7 105 -21s61.334 -33.333 86.001 -58s44 -53.334 58 -86.001s21 -67.667 21 -105v-89h55v-117h-595v117h420v89zM220.996 -156.999c0 19.333 7.16699 36.166 21.5 50.499s31.166 21.5 50.499 21.5s36.166 -7.16699 50.499 -21.5
s21.5 -31.166 21.5 -50.499s-7.16699 -36.166 -21.5 -50.499s-31.166 -21.5 -50.499 -21.5s-36.166 7.16699 -50.499 21.5s-21.5 31.166 -21.5 50.499z" />
    <glyph glyph-name="haafina" unicode="&#x62d;" horiz-adv-x="791" arabic-form="final" 
d="M435 84c-27.333 0 -53.3398 -0.994141 -78.0068 -2.99414s-46.167 -6.83301 -64.5 -14.5s-33 -19.5 -44 -35.5s-16.5 -38 -16.5 -66c0 -18 2.83301 -35.333 8.5 -52s14.5 -31.334 26.5 -44.001s27 -22.667 45 -30s39.333 -11 64 -11c22.667 0 46.334 4.83301 71.001 14.5
s46.334 25.5 65.001 47.5l87 -81c-22.667 -27.333 -52.167 -50.833 -88.5 -70.5s-80.166 -29.5 -131.499 -29.5c-37.333 0 -72.833 4.5 -106.5 13.5s-63.5 23.833 -89.5 44.5s-46.667 47.667 -62 81s-23 74.666 -23 123.999c0 20.667 4.83301 44.167 14.5 70.5
s24.334 51.166 44.001 74.499s44.667 43 75 59s66.5 24 108.5 24h114h70v51c0 21.333 -3.83301 41.5 -11.5 60.5s-18.167 35.5 -31.5 49.5s-29.166 25 -47.499 33s-38.166 12 -59.499 12c-28 0 -52.833 -6.33301 -74.5 -19s-41.167 -29.667 -58.5 -51l-68 94
c24.667 28 54.334 50.167 89.001 66.5s72 24.5 112 24.5c37.333 0 72.333 -7 105 -21s61.334 -33.333 86.001 -58s44 -53.334 58 -86.001s21 -67.667 21 -105v-39c0 -16.667 1 -31 3 -43s6 -21.833 12 -29.5s14.833 -13.334 26.5 -17.001s27.167 -5.5 46.5 -5.5h68v-117h-88
c-46 0 -82.333 7.16699 -109 21.5s-46.334 35.166 -59.001 62.499h-109z" />
    <glyph glyph-name="haaini" unicode="&#x62d;" horiz-adv-x="596" arabic-form="initial" 
d="M411 206c0 21.333 -3.83691 41.501 -11.5039 60.501s-18.167 35.5 -31.5 49.5s-29.166 25 -47.499 33s-38.166 12 -59.499 12c-28 0 -52.833 -6.33301 -74.5 -19s-41.167 -29.667 -58.5 -51l-68 94c24.667 28 54.334 50.167 89.001 66.5s72 24.5 112 24.5
c37.333 0 72.333 -7 105 -21s61.334 -33.333 86.001 -58s44 -53.334 58 -86.001s21 -67.667 21 -105l-1 -206h-539v117h420v89z" />
    <glyph glyph-name="haamedi" unicode="&#x62d;" horiz-adv-x="577" arabic-form="medial" 
d="M411 206c0 21.333 -3.83691 41.501 -11.5039 60.501s-18.167 35.5 -31.5 49.5s-29.166 25 -47.499 33s-38.166 12 -59.499 12c-28 0 -52.833 -6.33301 -74.5 -19s-41.167 -29.667 -58.5 -51l-68 94c24.667 28 54.334 50.167 89.001 66.5s72 24.5 112 24.5
c37.333 0 72.333 -7 105 -21s61.334 -33.333 86.001 -58s44 -53.334 58 -86.001s21 -67.667 21 -105v-89h55v-117h-595v117h420v89z" />
    </font>
</defs>
</svg>
