<?xml version="1.0" standalone="no"?>
<!DOCTYPE svg PUBLIC "-//W3C//DTD SVG 1.1//EN" "http://www.w3.org/Graphics/SVG/1.1/DTD/svg11.dtd" >
<svg xmlns="http://www.w3.org/2000/svg">
<metadata>
Created by FontPrep 20130207 at Mon Mar  9 14:00:11 2015
 By Abhishek Jayaprakash
(c) 1987, 1991, 1993, 2002 Adobe Systems Incorporated. All rights reserved.
</metadata>
<defs>
<font id="978bfeb47c41e9c6da434cb6375bf283" horiz-adv-x='1024' >
  <font-face 
    font-family="FuturaStd-Medium"
    font-weight="500"
    font-stretch="normal"
    units-per-em="2048"
    panose-1="2 11 5 2 2 2 4 2 3 3"
    ascent="1690"
    descent="-358"
    x-height="958"
    cap-height="1544"
    bbox="-334 -549 2279 2038"
    underline-thickness="102"
    underline-position="-102"
    unicode-range="U+0020-FB02"
  />
<missing-glyph horiz-adv-x="1024" 
d="M102 1239v-1044l349 522zM164 102h696l-348 523zM573 717l349 -522v1044zM512 809l348 522h-696zM0 0v1434h1024v-1434h-1024z" />
    <glyph glyph-name="f_i" unicode="fi" horiz-adv-x="1048" 
d="M478 1630q-121 0 -129 -195q-1 -24 -1 -65v-412h254v-172h-254v-786h-184v786h-84v172h84v467q0 377 309 377q68 1 129 -24v-187q-88 39 -124 39zM788 1526q52 0 90 -38t38 -90t-38 -89q-36 -37 -90 -37t-90 37t-36 89t36 90q37 38 90 38zM881 958v-958h-185v958h185z
" />
    <glyph glyph-name="f_l" unicode="fl" horiz-adv-x="1017" 
d="M478 1630q-121 0 -129 -195q-1 -24 -1 -65v-412h254v-172h-254v-786h-184v786h-84v172h84v467q0 377 309 377q68 1 129 -24v-187q-88 39 -124 39zM883 1778v-1778h-185v1778h185z" />
    <glyph glyph-name=".notdef" horiz-adv-x="1024" 
d="M102 1239v-1044l349 522zM164 102h696l-348 523zM573 717l349 -522v1044zM512 809l348 522h-696zM0 0v1434h1024v-1434h-1024z" />
    <glyph glyph-name=".null" horiz-adv-x="0" 
 />
    <glyph glyph-name="nonmarkingreturn" horiz-adv-x="681" 
 />
    <glyph glyph-name="space" unicode=" " horiz-adv-x="591" 
 />
    <glyph glyph-name="exclam" unicode="!" horiz-adv-x="657" 
d="M238 356v1188h184v-1188h-184zM330 205q49 0 84 -36t35 -84t-35 -83t-84 -35t-84 35t-35 83t35 84t84 36z" />
    <glyph glyph-name="quotedbl" unicode="&#x22;" horiz-adv-x="899" 
d="M514 1544h201l-37 -672h-127zM184 1544h201l-37 -672h-127z" />
    <glyph glyph-name="numbersign" unicode="#" 
d="M502 909l-56 -315h252l56 315h-252zM1133 1073v-164h-220l-55 -315h207v-164h-240l-77 -430h-156l76 430h-252l-82 -430h-154l76 430h-205v164h236l55 315h-215v164h244l73 397h158l-74 -397h254l72 397h162l-72 -397h189z" />
    <glyph glyph-name="dollar" unicode="$" 
d="M580 967v432q-82 -11 -136 -71t-55 -140q1 -145 191 -221zM580 1761h102v-184q233 -23 350 -238l-162 -92q-59 113 -188 152v-481q184 -80 292 -190t108 -280t-118 -314t-282 -167v-194h-102v194q-178 2 -314 127q-135 125 -164 303l185 39q27 -135 95 -204t198 -85v615
l-74 37q-143 73 -219 155t-76 228q-1 146 107 264t262 131v184zM897 438q0 164 -215 277v-555q94 20 155 100q60 80 60 178z" />
    <glyph glyph-name="percent" unicode="%" horiz-adv-x="1449" 
d="M1057 670q147 0 253 -104t107 -248q1 -146 -107 -248t-253 -102t-253 102t-108 247t107 249t254 104zM395 1577q147 0 253 -103q106 -102 108 -248q0 -146 -108 -248t-253 -104q-145 0 -253 102t-108 248t107 250q107 103 254 103zM1057 547q-96 0 -167 -68t-71 -161
q0 -92 71 -160t167 -68t167 68q70 68 70 160t-70 161q-71 68 -167 68zM1130 1577l93 -53l-901 -1557l-95 51zM395 1454q-96 0 -167 -68q-70 -68 -70 -160t70 -161q70 -68 167 -68q96 0 167 68t71 161q0 92 -71 160t-167 68z" />
    <glyph glyph-name="ampersand" unicode="&#x26;" horiz-adv-x="1417" 
d="M582 -33q-197 0 -335 129t-138 326q0 133 68 223q69 90 202 186l96 70q-170 178 -170 336q1 158 101 249t252 91t255 -87q105 -87 105 -221t-84 -226t-197 -173l322 -389l180 209l123 -127l-188 -221l276 -342h-238l-168 209q-205 -242 -462 -242zM661 1425
q-75 0 -125 -46t-50 -113t45 -137q13 -19 47 -60l51 -65q137 92 172 145q35 54 36 121t-49 111t-127 44zM377 226q88 -87 198 -87q68 0 138 35q71 35 113 72t104 98l-342 418l-19 -12q-2 -2 -41 -29t-49 -34t-44 -34t-47 -40q-99 -99 -99 -200q0 -100 88 -187z" />
    <glyph glyph-name="quotesingle" unicode="'" horiz-adv-x="567" 
d="M184 1544h201l-37 -672h-127z" />
    <glyph glyph-name="parenleft" unicode="(" horiz-adv-x="598" 
d="M305 630q0 -544 176 -913l-151 -112q-106 211 -160 484q-53 273 -53 541q-1 268 53 544q54 274 160 483l151 -113q-176 -370 -176 -914z" />
    <glyph glyph-name="parenright" unicode=")" horiz-adv-x="598" 
d="M481 632q0 -268 -53 -542t-160 -485l-151 112q176 369 176 913t-176 914l151 113q106 -209 160 -483t53 -542z" />
    <glyph glyph-name="asterisk" unicode="*" horiz-adv-x="884" 
d="M377 1544h141v-194l166 98l72 -121l-174 -102l174 -103l-72 -118l-166 102v-197h-141v199l-178 -100l-70 116l174 101l-172 102l64 117l182 -101v201z" />
    <glyph glyph-name="plus" unicode="+" 
d="M504 1049h176v-437h436v-176h-436v-436h-176v436h-436v176h436v437z" />
    <glyph glyph-name="comma" unicode="," horiz-adv-x="591" 
d="M336 244l160 -64l-273 -547l-112 48z" />
    <glyph glyph-name="hyphen" unicode="-" horiz-adv-x="679" 
d="M117 733h448v-153h-448v153z" />
    <glyph glyph-name="period" unicode="." horiz-adv-x="591" 
d="M297 205q49 0 84 -36t35 -84t-35 -83t-84 -35t-84 35t-35 83t35 84t84 36z" />
    <glyph glyph-name="slash" unicode="/" horiz-adv-x="1128" 
d="M918 1778l147 -66l-854 -1970l-145 65z" />
    <glyph glyph-name="zero" unicode="0" 
d="M592 1413q-98 -1 -171 -69t-111 -172q-72 -198 -72 -396t72 -397q38 -104 111 -172t171 -68t171 68q118 110 166 377q17 100 17 190q0 202 -73 397q-38 104 -110 174q-73 68 -171 68zM592 -33q-115 1 -208 55q-167 98 -248 312q-81 215 -82 459t118 498q59 126 169 206
t251 80t251 -80t169 -206q120 -256 119 -498t-82 -458t-249 -313q-93 -55 -208 -55z" />
    <glyph glyph-name="one" unicode="1" 
d="M520 1368h-268l106 176h347v-1544h-185v1368z" />
    <glyph glyph-name="two" unicode="2" 
d="M1090 176v-176h-998l676 829q137 168 137 283t-91 202t-210 87t-205 -83t-94 -200h-192q23 209 152 334q130 125 334 125t347 -132q144 -131 144 -319t-115 -329l-508 -621h623z" />
    <glyph glyph-name="three" unicode="3" 
d="M563 897q303 0 303 248q0 117 -76 191t-186 73q-110 0 -178 -60t-84 -161h-190q27 190 144 290q118 99 308 99t318 -114t129 -302q0 -238 -197 -348q219 -104 219 -383q0 -211 -140 -337q-141 -126 -341 -126t-338 115q-137 115 -145 299h186q14 -111 99 -179t206 -67
q121 0 205 88t84 224t-91 219q-92 81 -235 71v160z" />
    <glyph glyph-name="four" unicode="4" 
d="M776 393v637h-4l-434 -637h438zM961 393h176v-168h-176v-225h-185v225h-762l947 1385v-1217z" />
    <glyph glyph-name="five" unicode="5" 
d="M1081 1368h-485l-96 -317l108 6q216 0 356 -160q140 -161 140 -391t-165 -384t-407 -155q-145 0 -275 73t-196 198l144 135q35 -96 136 -163t206 -67q157 0 265 112q108 113 108 265t-110 260t-259 109q-82 0 -161 -37t-128 -100h-37l238 792h618v-176z" />
    <glyph glyph-name="six" unicode="6" 
d="M593 139q132 0 230 94q99 93 99 227t-100 230t-228 96q-127 0 -227 -98q-101 -98 -101 -227t98 -225t229 -97zM1106 465q0 -201 -150 -349t-356 -148t-362 146t-156 338t168 416l526 709l139 -94l-411 -557l4 -4q74 37 151 36q187 0 317 -146t130 -347z" />
    <glyph glyph-name="seven" unicode="7" 
d="M96 1368v176h1112l-962 -1577l-150 92l799 1309h-799z" />
    <glyph glyph-name="eight" unicode="8" 
d="M592 1413q-104 0 -183 -78t-79 -179t83 -186t179 -85t179 85q83 84 83 186t-79 180t-183 77zM109 430q0 129 63 229t180 142q-203 115 -202 346q0 186 128 308t314 122t314 -122t128 -308q0 -231 -203 -346q117 -41 181 -141t63 -230q0 -209 -140 -336t-343 -127
t-343 127t-140 336zM592 721q-119 0 -209 -85t-90 -203t92 -206t207 -88t207 88t92 206t-90 203t-209 85z" />
    <glyph glyph-name="nine" unicode="9" 
d="M627 758q134 0 227 96q92 96 92 224t-95 228t-227 99q-132 0 -232 -96q-100 -97 -101 -229q0 -132 101 -227t235 -95zM555 594q-188 0 -318 143q-131 143 -131 343t150 348t356 148t363 -145q155 -146 155 -338t-167 -417l-527 -709l-139 96l412 555l-4 5
q-57 -29 -150 -29z" />
    <glyph glyph-name="colon" unicode=":" horiz-adv-x="591" 
d="M297 987q49 0 84 -36t35 -84t-35 -83q-35 -34 -84 -34t-84 34t-35 83q0 48 35 84t84 36zM297 205q49 0 84 -36t35 -84t-35 -83t-84 -35t-84 35t-35 83t35 84t84 36z" />
    <glyph glyph-name="semicolon" unicode=";" horiz-adv-x="591" 
d="M393 987q49 0 84 -36t35 -84t-35 -83q-35 -34 -84 -34t-84 34t-35 83q0 48 35 84t84 36zM319 244l160 -64l-272 -547l-113 48z" />
    <glyph glyph-name="less" unicode="&#x3c;" 
d="M1116 1020v-193l-786 -303l786 -303v-192l-1048 424v143z" />
    <glyph glyph-name="equal" unicode="=" 
d="M68 436h1048v-176h-1048v176zM68 788h1048v-176h-1048v176z" />
    <glyph glyph-name="greater" unicode="&#x3e;" 
d="M68 827v193l1048 -424v-143l-1048 -424v192l786 303z" />
    <glyph glyph-name="question" unicode="?" horiz-adv-x="927" 
d="M471 205q49 0 84 -36t35 -84t-35 -83t-84 -35t-84 35t-35 83t35 84t84 36zM470 377q-136 0 -232 95q-96 96 -96 230t73 202q74 68 268 132q52 17 69 29q18 11 38 25t38 41q27 40 27 107t-53 116t-130 49t-129 -52t-52 -124q0 -20 12 -66h-192l-5 68q-8 145 105 247
t265 101q152 0 259 -104q107 -103 107 -261t-111 -251q-63 -55 -254 -115q-150 -45 -149 -150q0 -61 41 -104t105 -43t104 46t38 112h187q6 -131 -96 -231q-101 -100 -237 -99z" />
    <glyph glyph-name="at" unicode="@" horiz-adv-x="1638" 
d="M1182 461q74 0 148 123t73 270q0 254 -157 407q-158 153 -406 153t-425 -188q-177 -186 -177 -458t189 -454t455 -183q266 0 384 98l153 -123q-131 -70 -250 -104t-301 -35q-334 -1 -564 229t-230 574t226 576t556 231q285 0 481 -178q229 -199 229 -469t-126 -436
q-70 -92 -154 -138t-162 -41q-90 4 -110 127q-128 -127 -272 -127t-247 112t-104 267q0 195 117 341t301 147q159 -1 272 -146l29 127h145l-102 -526q-18 -51 -17 -113t46 -63zM756 475q126 0 192 81t81 205q15 125 -42 193t-171 68t-190 -96t-75 -204q0 -108 56 -177
q56 -70 149 -70z" />
    <glyph glyph-name="A" unicode="A" horiz-adv-x="1439" 
d="M995 563l-274 625l-275 -625h549zM1075 387h-708l-177 -387h-206l737 1610l737 -1610h-207z" />
    <glyph glyph-name="B" unicode="B" horiz-adv-x="1095" 
d="M131 0v1544h188q408 0 520 -212q46 -88 46 -194t-45 -191t-121 -120v-4q133 -25 221 -139t88 -252q0 -216 -156 -324t-380 -108h-361zM324 707v-535h147q365 0 365 272q0 78 -36 132q-84 127 -358 131h-118zM324 1372v-512h49q159 0 245 53t86 204t-84 203
q-85 52 -243 52h-53z" />
    <glyph glyph-name="C" unicode="C" horiz-adv-x="1353" 
d="M855 1401q-247 1 -424 -185t-177 -444t175 -443t419 -185t424 159v-227q-184 -109 -406 -109q-332 -1 -568 231t-237 570q0 338 240 574t582 235q219 0 389 -104v-224q-170 152 -417 152z" />
    <glyph glyph-name="D" unicode="D" horiz-adv-x="1361" 
d="M324 1368v-1192h67q315 0 513 129q103 68 162 187q58 120 58 282q0 456 -451 563q-126 31 -282 31h-67zM131 0v1544h320q375 0 621 -198t245 -571q0 -375 -244 -575t-629 -200h-313z" />
    <glyph glyph-name="E" unicode="E" horiz-adv-x="1067" 
d="M147 0v1544h830v-176h-637v-432h618v-176h-618v-584h637v-176h-830z" />
    <glyph glyph-name="F" unicode="F" horiz-adv-x="970" 
d="M893 1368h-555v-434h536v-176h-536v-758h-193v1544h748v-176z" />
    <glyph glyph-name="G" unicode="G" horiz-adv-x="1597" 
d="M942 778h612v-61q0 -322 -204 -536t-527 -214q-322 0 -551 239q-229 240 -229 568q1 328 235 566t566 237q182 0 349 -79t280 -220l-136 -129q-84 115 -215 183t-270 69q-258 0 -437 -183q-179 -184 -179 -438t177 -445t423 -192q184 -1 342 137t163 322h-399v176z" />
    <glyph glyph-name="H" unicode="H" horiz-adv-x="1382" 
d="M324 922h735v622h192v-1544h-192v741h-735v-741h-193v1544h193v-622z" />
    <glyph glyph-name="I" unicode="I" horiz-adv-x="475" 
d="M334 1544v-1544h-193v1544h193z" />
    <glyph glyph-name="J" unicode="J" horiz-adv-x="741" 
d="M428 1544h193v-981q0 -248 -73 -406q-88 -190 -345 -190q-129 0 -242 68l96 164q68 -51 152 -52t141 54q78 68 78 288v1055z" />
    <glyph glyph-name="K" unicode="K" horiz-adv-x="1228" 
d="M340 0h-193v1544h193v-670l655 670h252l-694 -694l707 -850h-261l-581 719l-78 -74v-645z" />
    <glyph glyph-name="L" unicode="L" horiz-adv-x="788" 
d="M340 1544v-1368h469v-176h-662v1544h193z" />
    <glyph glyph-name="M" unicode="M" horiz-adv-x="1742" 
d="M872 -33l-462 1053h-4l-181 -1020h-198l315 1610l530 -1217l531 1217l315 -1610h-198l-181 1020h-4z" />
    <glyph glyph-name="N" unicode="N" horiz-adv-x="1607" 
d="M129 0v1618l1159 -1215v1141h193v-1607l-1159 1214v-1151h-193z" />
    <glyph glyph-name="O" unicode="O" horiz-adv-x="1695" 
d="M848 147q252 -1 434 181t182 443t-175 443t-441 182t-441 -182t-175 -443t182 -443t434 -181zM848 1577q332 0 570 -237q238 -238 239 -574q0 -336 -236 -567q-235 -231 -573 -231t-574 230q-236 232 -236 569t240 573q238 236 570 237z" />
    <glyph glyph-name="P" unicode="P" horiz-adv-x="1013" 
d="M340 1372v-553h61q295 0 375 135q35 58 35 146q0 173 -141 228q-115 44 -279 44h-51zM340 647v-647h-193v1544h222q342 0 482 -112t140 -337q-1 -226 -151 -337t-389 -111h-111z" />
    <glyph glyph-name="Q" unicode="Q" horiz-adv-x="1695" 
d="M1464 772q0 260 -175 442t-441 182t-441 -182t-175 -443t182 -442t434 -182q168 0 307 89l-354 346h239l244 -242q86 76 133 196t47 236zM848 -33q-338 -1 -574 231t-236 569t240 573q238 236 570 237q332 0 570 -237t239 -568q1 -164 -63 -312t-179 -257l240 -236h-234
l-133 137q-199 -137 -440 -137z" />
    <glyph glyph-name="R" unicode="R" horiz-adv-x="1112" 
d="M340 1372v-559h61q295 0 375 135q35 59 35 148q0 276 -420 276h-51zM340 653v-653h-193v1544h234q284 0 407 -71q94 -55 148 -155t55 -214q0 -168 -102 -290t-268 -142l487 -672h-234l-454 653h-80z" />
    <glyph glyph-name="S" unicode="S" horiz-adv-x="1099" 
d="M328 1178q0 -139 215 -222l110 -43q183 -72 283 -178q100 -107 100 -301t-142 -330t-340 -137q-198 0 -331 122t-157 310l194 41q-2 -125 85 -209t212 -84q125 -1 206 89t81 208t-71 182t-195 115l-107 45q-158 68 -247 156t-89 236q0 180 135 290t320 109
q266 -1 397 -234l-153 -92q-86 145 -248 146q-98 1 -178 -61t-80 -158z" />
    <glyph glyph-name="T" unicode="T" horiz-adv-x="933" 
d="M563 1368v-1368h-192v1368h-367v176h926v-176h-367z" />
    <glyph glyph-name="U" unicode="U" horiz-adv-x="1370" 
d="M121 1544h192v-911q0 -485 373 -486q373 0 373 486v911h192v-977q-1 -262 -153 -431t-412 -169t-413 169t-152 431v977z" />
    <glyph glyph-name="V" unicode="V" horiz-adv-x="1310" 
d="M197 1544l460 -1143l459 1143h211l-670 -1626l-671 1626h211z" />
    <glyph glyph-name="W" unicode="W" horiz-adv-x="2103" 
d="M184 1544l432 -1106l437 1139l436 -1139l432 1106h209l-641 -1605l-436 1132l-437 -1132l-641 1605h209z" />
    <glyph glyph-name="X" unicode="X" horiz-adv-x="1175" 
d="M485 809l-426 735h220l315 -563l336 563h219l-444 -735l469 -809h-216l-364 633l-379 -633h-215z" />
    <glyph glyph-name="Y" unicode="Y" horiz-adv-x="1173" 
d="M684 0h-192v672l-504 872h221l379 -659l379 659h221l-504 -872v-672z" />
    <glyph glyph-name="Z" unicode="Z" horiz-adv-x="1130" 
d="M1114 176v-176h-1096l783 1368h-672v176h985l-782 -1368h782z" />
    <glyph glyph-name="bracketleft" unicode="[" horiz-adv-x="636" 
d="M313 1485v-1708h201v-172h-389v2052h389v-172h-201z" />
    <glyph glyph-name="backslash" unicode="\" horiz-adv-x="1128" 
d="M63 1778h173l827 -1778h-172z" />
    <glyph glyph-name="bracketright" unicode="]" horiz-adv-x="636" 
d="M324 -223v1708h-201v172h389v-2052h-389v172h201z" />
    <glyph glyph-name="asciicircum" unicode="^" 
d="M68 631l409 913h230l409 -913h-192l-332 741l-334 -741h-190z" />
    <glyph glyph-name="underscore" unicode="_" horiz-adv-x="1024" 
d="M1024 -154v-102h-1024v102h1024z" />
    <glyph glyph-name="grave" unicode="`" horiz-adv-x="737" 
d="M156 1413l170 90l256 -340l-90 -55z" />
    <glyph glyph-name="a" unicode="a" horiz-adv-x="1138" 
d="M1026 958v-958h-184v150h-4q-123 -182 -330 -182t-331 150q-124 152 -124 362t125 358t330 149q205 0 330 -188h4v159h184zM544 131q142 0 225 100q83 101 83 247t-84 246t-224 99q-140 0 -223 -101q-83 -102 -83 -244t81 -245q83 -102 225 -102z" />
    <glyph glyph-name="b" unicode="b" horiz-adv-x="1138" 
d="M113 0v1778h184v-979h4q125 188 330 188t330 -148q125 -147 125 -359t-124 -362q-122 -150 -335 -151q-97 0 -183 49t-143 134h-4v-150h-184zM287 478q0 -142 82 -244t224 -103q142 0 225 100q83 101 83 247t-84 246t-224 99q-140 0 -223 -101q-83 -102 -83 -244z" />
    <glyph glyph-name="c" unicode="c" horiz-adv-x="903" 
d="M571 815q-147 0 -240 -100q-93 -99 -93 -241t93 -238t241 -96t259 126v-235q-119 -63 -264 -64q-213 -1 -363 145t-151 363q0 217 151 365t374 147q144 0 253 -63v-238q-113 129 -260 129z" />
    <glyph glyph-name="d" unicode="d" horiz-adv-x="1138" 
d="M842 0v150h-4q-56 -84 -142 -134t-184 -49q-213 0 -336 151q-123 152 -123 362t125 358t330 149q205 0 330 -188h4v979h184v-1778h-184zM544 131q142 0 225 100q83 101 83 247t-84 246t-224 99q-140 0 -223 -101q-83 -102 -83 -244t81 -245q83 -102 225 -102z" />
    <glyph glyph-name="e" unicode="e" horiz-adv-x="999" 
d="M248 588h536q-16 112 -86 176t-177 64t-182 -68t-91 -172zM969 449h-731q2 -129 81 -224q79 -94 193 -94t179 46t122 140l156 -88q-68 -123 -186 -193t-259 -69q-215 -1 -343 143t-128 367t121 367t343 143q222 0 337 -142t115 -368v-28z" />
    <glyph glyph-name="f" unicode="f" horiz-adv-x="563" 
d="M478 1630q-121 0 -129 -195q-1 -24 -1 -65v-412h254v-172h-254v-786h-184v786h-84v172h84v467q0 377 309 377q68 1 129 -24v-187q-88 39 -124 39z" />
    <glyph glyph-name="g" unicode="g" horiz-adv-x="1136" 
d="M1024 958v-940q0 -272 -102 -419t-365 -148q-203 0 -332 117t-131 317h185q1 -127 79 -199t222 -71q144 0 201 92q58 92 59 260v183h-4q-56 -84 -142 -134t-184 -49q-213 0 -336 151q-123 152 -123 362t125 358t331 149q206 0 329 -192h4v163h184zM542 131q142 0 225 100
q83 101 83 247t-84 246t-224 99q-140 0 -224 -101q-84 -102 -82 -244q0 -142 81 -245q83 -102 225 -102z" />
    <glyph glyph-name="h" unicode="h" horiz-adv-x="1071" 
d="M127 1778h184v-949h4q41 76 120 117t169 41q188 -1 264 -111t76 -305v-571h-184v549q0 141 -40 208t-166 67t-173 -62q-25 -33 -40 -63q-30 -60 -30 -259v-440h-184v1778z" />
    <glyph glyph-name="i" unicode="i" horiz-adv-x="520" 
d="M260 1526q53 0 90 -38t37 -90t-37 -89t-90 -37t-90 37t-37 89t37 90t90 38zM352 958v-958h-184v958h184z" />
    <glyph glyph-name="j" unicode="j" horiz-adv-x="520" 
d="M260 1526q53 0 90 -38t37 -90t-37 -89t-90 -37t-90 37t-37 89t37 90t90 38zM352 958v-1507h-184v1507h184z" />
    <glyph glyph-name="k" unicode="k" horiz-adv-x="946" 
d="M324 1778v-1180l360 360h244l-410 -397l451 -561h-240l-342 436l-63 -63v-373h-185v1778h185z" />
    <glyph glyph-name="l" unicode="l" horiz-adv-x="454" 
d="M319 1778v-1778h-184v1778h184z" />
    <glyph glyph-name="m" unicode="m" horiz-adv-x="1570" 
d="M305 958v-120h4q41 66 110 108t144 41q178 0 277 -170q45 78 125 124t170 46q317 0 317 -414v-573h-184v543q0 201 -83 256q-38 25 -95 25q-189 -2 -208 -259q-3 -41 -3 -94v-471h-185v508q0 178 -40 242q-44 74 -146 74q-60 0 -106 -32q-97 -66 -97 -321v-471h-184v958
h184z" />
    <glyph glyph-name="n" unicode="n" horiz-adv-x="1071" 
d="M311 958v-129h4q41 76 120 117t169 41q188 -1 264 -111t76 -305v-571h-184v549q0 141 -40 208t-166 67t-173 -62q-25 -33 -40 -63q-30 -60 -30 -259v-440h-184v958h184z" />
    <glyph glyph-name="o" unicode="o" horiz-adv-x="1105" 
d="M553 811q-135 0 -231 -98q-96 -99 -96 -235t96 -235t231 -99t231 98q96 100 96 236t-96 234t-231 99zM553 987q215 0 363 -147q148 -146 148 -362t-148 -363t-363 -147t-363 146q-148 148 -149 363q0 215 148 363q149 147 364 147z" />
    <glyph glyph-name="p" unicode="p" horiz-adv-x="1138" 
d="M297 958v-159h4q125 188 330 188t330 -148q125 -147 125 -359t-124 -362q-122 -150 -335 -151q-97 0 -183 49t-143 134h-4v-699h-184v1507h184zM287 478q0 -142 82 -244t224 -103q142 0 225 100q83 101 83 247t-84 246t-224 99q-140 0 -223 -101q-83 -102 -83 -244z" />
    <glyph glyph-name="q" unicode="q" horiz-adv-x="1138" 
d="M1026 958v-1507h-184v699h-4q-56 -84 -142 -134t-184 -49q-213 0 -336 151q-123 152 -123 362t125 358t330 149q205 0 330 -188h4v159h184zM544 131q142 0 225 100q83 101 83 247t-84 246t-224 99q-140 0 -223 -101q-83 -102 -83 -244t81 -245q83 -102 225 -102z" />
    <glyph glyph-name="r" unicode="r" horiz-adv-x="718" 
d="M324 958v-155h6q35 86 103 135q69 49 153 49t157 -47l-84 -168q-45 39 -115 39q-188 0 -213 -220q-7 -52 -7 -120v-471h-185v958h185z" />
    <glyph glyph-name="s" unicode="s" horiz-adv-x="786" 
d="M389 823q-39 0 -77 -33t-18 -95q5 -15 20 -28q14 -13 26 -23t38 -24q26 -12 40 -20t48 -22q136 -56 202 -123q65 -67 65 -186t-97 -211q-98 -92 -220 -91t-214 59t-130 156l157 72q68 -123 174 -123q59 0 103 38q43 38 43 97t-68 105l-180 96q-94 51 -139 101t-45 154
t83 184t199 81q181 0 263 -168l-150 -80q-41 84 -123 84z" />
    <glyph glyph-name="t" unicode="t" horiz-adv-x="491" 
d="M338 786v-786h-184v786h-101v172h101v367h184v-367h180v-172h-180z" />
    <glyph glyph-name="u" unicode="u" horiz-adv-x="1048" 
d="M119 958h184v-530q0 -133 48 -211t173 -78t173 78t48 211v530h185v-550q0 -205 -100 -323t-306 -118q-205 0 -305 118t-100 323v550z" />
    <glyph glyph-name="v" unicode="v" horiz-adv-x="911" 
d="M180 958l275 -598l276 598h207l-483 -991l-482 991h207z" />
    <glyph glyph-name="w" unicode="w" horiz-adv-x="1470" 
d="M176 958l279 -610l282 664l281 -664l278 610h209l-487 -991l-281 641l-282 -641l-488 991h209z" />
    <glyph glyph-name="x" unicode="x" horiz-adv-x="1001" 
d="M399 520l-344 438h217l228 -309l248 309h223l-353 -438l412 -520h-215l-315 389l-305 -389h-224z" />
    <glyph glyph-name="y" unicode="y" horiz-adv-x="991" 
d="M412 164l-439 794h215l324 -608l301 608h207l-776 -1507h-209z" />
    <glyph glyph-name="z" unicode="z" horiz-adv-x="1013" 
d="M985 172v-172h-981l649 786h-538v172h897l-650 -786h623z" />
    <glyph glyph-name="braceleft" unicode="{" horiz-adv-x="684" 
d="M252 1014v372q0 113 60 192t114 79h160v-172h-82q-53 0 -62 -62q-2 -20 -2 -65v-377q0 -106 -37 -191t-65 -114t-53 -47q35 -22 76 -77q79 -105 79 -273v-377q0 -46 2 -66t16 -40t46 -21h82v-172h-160q-53 0 -114 79q-60 79 -60 191v373q0 241 -154 309v150
q154 68 154 309z" />
    <glyph glyph-name="bar" unicode="|" horiz-adv-x="1167" 
d="M672 1610v-2048h-176v2048h176z" />
    <glyph glyph-name="braceright" unicode="}" horiz-adv-x="684" 
d="M432 246v-373q0 -113 -60 -191t-114 -79h-160v172h82q31 0 45 20q15 21 17 41t2 66v377q0 168 59 247t96 103q-27 18 -55 47t-63 114q-37 85 -37 191v377q0 45 -2 65q-2 21 -16 41t-46 21h-82v172h160q54 0 114 -79t60 -192v-372q0 -241 154 -309v-150
q-154 -68 -154 -309z" />
    <glyph glyph-name="asciitilde" unicode="~" 
d="M805 332q-82 0 -236 104q-14 10 -43 30t-43 30q-61 46 -104 45q-43 0 -86 -41t-96 -127l-129 92q66 96 124 161q173 190 439 -14q12 -10 38 -29t39 -29q56 -45 95 -46q66 0 123 90q12 18 39 61l14 25l137 -102q-137 -250 -311 -250z" />
    <glyph glyph-name="uni00A0" unicode="&#xa0;" horiz-adv-x="591" 
 />
    <glyph glyph-name="exclamdown" unicode="&#xa1;" horiz-adv-x="657" 
d="M238 662h184v-1190h-184v1190zM330 1040q49 0 84 -36t35 -83q0 -48 -35 -83t-84 -35t-84 35t-35 83q0 47 35 83t84 36z" />
    <glyph glyph-name="cent" unicode="&#xa2;" 
d="M385 776q-1 -110 67 -206t179 -119v653q-104 -12 -175 -114t-71 -214zM729 1442v-156q152 -8 250 -63v-236h-4q-96 125 -246 129v-672q150 20 250 127v-239q-102 -49 -215 -58l-35 -2v-174h-98v183q-186 29 -306 165t-120 328q0 191 119 335t307 173v160h98z" />
    <glyph glyph-name="sterling" unicode="&#xa3;" 
d="M57 616v119h205q-119 225 -119 369q0 195 155 334q154 139 360 139t339 -132t144 -347l-185 -70v57q0 129 -85 221t-212 91q-127 1 -229 -97t-102 -204t50 -197q17 -33 50 -87t45 -77h303v-119h-254q53 -172 0 -352l152 -53q12 -3 77 -31t110 -28q44 0 80 28t53 52
q17 26 42 71l154 -94q-47 -109 -128 -175q-82 -66 -186 -67q-104 0 -270 67t-241 66q-128 0 -181 -133l-161 82q63 111 134 169t181 63q61 205 -16 335h-265z" />
    <glyph glyph-name="currency" unicode="&#xa4;" 
d="M592 266q148 0 252 102t106 250t-100 246t-258 98t-258 -98t-100 -246t107 -250q104 -102 251 -102zM1114 614q0 -156 -86 -290l84 -91l-123 -122l-94 90q-129 -99 -303 -99t-303 99l-94 -90l-123 122l84 91q-86 134 -86 290t86 291l-84 90l123 123l94 -90q129 98 303 98
t303 -98l94 90l123 -123l-84 -90q86 -135 86 -291z" />
    <glyph glyph-name="yen" unicode="&#xa5;" 
d="M688 532v-532h-192v532h-484v119h484v21l-111 192h-373v119h303l-323 561h221l379 -659l379 659h221l-324 -561h303v-119h-370l-113 -192v-21h483v-119h-483z" />
    <glyph glyph-name="brokenbar" unicode="&#xa6;" horiz-adv-x="1167" 
d="M672 1354v-512h-176v512h176zM672 330v-512h-176v512h176z" />
    <glyph glyph-name="section" unicode="&#xa7;" 
d="M82 856q0 184 197 332q-91 102 -91 242t118 243q118 105 278 105t276 -92t127 -252h-178q-4 84 -73 133q-70 49 -156 49t-146 -60t-61 -139q0 -80 46 -127t128 -86l272 -137q123 -65 180 -108q103 -80 103 -189q0 -108 -50 -200t-132 -154q108 -102 108 -264t-129 -272
t-319 -110t-321 120q-130 118 -130 321v31h182q-4 -127 74 -215q77 -88 191 -88q114 -1 191 65t77 159t-72 148q-51 40 -137 82l-289 142q-70 35 -106 57q-109 66 -140 147q-18 49 -18 117zM920 725q0 65 -40 103t-116 75l-377 191q-55 -34 -89 -94t-34 -110q0 -91 60 -135
t114 -69l359 -178q55 35 89 94t34 123z" />
    <glyph glyph-name="dieresis" unicode="&#xa8;" horiz-adv-x="962" 
d="M698 1421q51 0 87 -36t36 -87t-36 -88q-36 -36 -87 -36t-88 36t-37 87q0 52 37 88t88 36zM266 1421q51 0 87 -36t36 -87t-36 -88q-36 -36 -88 -36t-88 36t-36 87q0 52 37 88t88 36z" />
    <glyph glyph-name="copyright" unicode="&#xa9;" horiz-adv-x="1638" 
d="M848 1112q-156 0 -235 -97t-79 -239t84 -235q84 -94 234 -95q209 0 252 183h125q-18 -141 -126 -227t-251 -87q-201 -1 -325 133t-124 334t121 331q121 130 326 130q144 0 248 -82t131 -223h-125q-18 84 -86 129t-170 45zM819 1446q-279 0 -477 -196t-199 -478
q0 -282 199 -478q200 -196 478 -196t476 196t199 478q-1 282 -199 478t-477 196zM819 -33q-338 1 -572 235t-235 570q0 336 234 570t573 234t573 -234t234 -570t-234 -570t-573 -235z" />
    <glyph glyph-name="ordfeminine" unicode="&#xaa;" horiz-adv-x="684" 
d="M659 1559v-574h-120v88h-4q-80 -109 -214 -109t-216 91q-81 90 -81 217t82 216t213 89t218 -113h2v95h120zM344 1063q92 0 146 60q54 61 54 149t-54 147t-145 59t-145 -60q-54 -62 -54 -147t52 -147q54 -62 146 -61z" />
    <glyph glyph-name="guillemotleft" unicode="&#xab;" horiz-adv-x="1071" 
d="M244 655l305 -391l-115 -84l-373 475l373 492l115 -84zM637 655l305 -391l-115 -84l-372 475l372 492l115 -84z" />
    <glyph glyph-name="logicalnot" unicode="&#xac;" 
d="M940 236v376h-872v176h1048v-552h-176z" />
    <glyph glyph-name="uni00AD" unicode="&#xad;" horiz-adv-x="679" 
d="M117 733h448v-153h-448v153z" />
    <glyph glyph-name="registered" unicode="&#xae;" horiz-adv-x="1638" 
d="M864 1087h-225v-225h139q14 0 54 -1q142 -4 190 23q47 27 47 93t-52 88q-53 22 -153 22zM639 731v-418h-131v906h381q311 0 311 -240q0 -123 -70 -183t-172 -65l230 -418h-150l-231 418h-168zM819 1446q-279 0 -477 -196t-199 -478q0 -282 199 -478q200 -196 478 -196
t476 196t199 478q-1 282 -199 478t-477 196zM819 -33q-338 1 -572 235t-235 570q0 336 234 570t573 234t573 -234t234 -570t-234 -570t-573 -235z" />
    <glyph glyph-name="macron" unicode="&#xaf;" horiz-adv-x="1024" 
d="M143 1421h740v-139h-740v139z" />
    <glyph glyph-name="degree" unicode="&#xb0;" horiz-adv-x="819" 
d="M614 1268q0 88 -59 148t-146 59q-87 1 -147 -59t-58 -147q1 -87 59 -145q57 -58 145 -59q88 0 147 58q59 57 59 145zM717 1270q0 -127 -90 -217t-217 -90t-217 90q-89 90 -91 216t89 217t219 91t217 -90q90 -90 90 -217z" />
    <glyph glyph-name="plusminus" unicode="&#xb1;" 
d="M504 1151h176v-354h436v-176h-436v-355h-176v355h-436v176h436v354zM68 0v176h1048v-176h-1048z" />
    <glyph glyph-name="twosuperior" unicode="&#xb2;" horiz-adv-x="708" 
d="M680 737v-119h-649l440 498q78 90 78 162q1 72 -59 120t-132 48t-122 -43t-54 -113h-137q14 125 98 200t216 75q133 0 227 -80t94 -196t-68 -193l-317 -359h385z" />
    <glyph glyph-name="threesuperior" unicode="&#xb3;" horiz-adv-x="708" 
d="M334 1180q88 0 140 34t52 103t-51 105t-118 36t-111 -28t-43 -87h-137q18 113 94 173t200 61q124 0 211 -69q86 -69 86 -181q0 -137 -135 -209q150 -66 150 -229q0 -127 -94 -203t-224 -76t-220 69q-89 69 -95 181h131q20 -131 184 -131q76 0 131 45t55 121t-58 123
q-60 47 -148 43v119z" />
    <glyph glyph-name="acute" unicode="&#xb4;" horiz-adv-x="737" 
d="M412 1503l170 -90l-336 -305l-90 55z" />
    <glyph glyph-name="mu" unicode="&#xb5;" horiz-adv-x="1048" 
d="M119 958h184v-530q0 -133 48 -211t173 -78t173 78t48 211v530h185v-550q0 -205 -100 -323t-306 -118q-115 0 -221 90v-606h-184v1507z" />
    <glyph glyph-name="paragraph" unicode="&#xb6;" 
d="M1102 1544v-172h-125v-1685h-172v1685h-127v-1685h-172v893q-176 0 -292 116t-130 317q-14 199 116 365t324 166h578z" />
    <glyph glyph-name="periodcentered" unicode="&#xb7;" horiz-adv-x="591" 
d="M297 643q49 0 84 -36t35 -84t-35 -83q-35 -34 -84 -34t-84 34t-35 83q0 48 35 84t84 36z" />
    <glyph glyph-name="cedilla" unicode="&#xb8;" horiz-adv-x="675" 
d="M500 -94l-215 -277l-109 56l178 280z" />
    <glyph glyph-name="onesuperior" unicode="&#xb9;" horiz-adv-x="708" 
d="M309 1425h-176l70 119h237v-926h-131v807z" />
    <glyph glyph-name="ordmasculine" unicode="&#xba;" horiz-adv-x="663" 
d="M332 1470q-88 0 -150 -58t-61 -140q0 -82 61 -142q62 -60 150 -59q88 0 150 59q62 60 62 142t-62 140t-150 58zM332 1577q139 0 236 -88q98 -88 98 -218t-98 -218t-236 -88q-139 0 -236 88q-96 88 -96 218t96 218q97 88 236 88z" />
    <glyph glyph-name="guillemotright" unicode="&#xbb;" horiz-adv-x="1071" 
d="M522 264l305 391l-305 408l115 84l373 -492l-373 -475zM129 264l305 391l-305 408l115 84l372 -492l-372 -475z" />
    <glyph glyph-name="onequarter" unicode="&#xbc;" horiz-adv-x="1775" 
d="M1292 1577l105 -53l-901 -1557l-105 58zM258 1425h-176l70 119h237v-926h-131v807zM1462 254v336h-6l-252 -336h258zM1593 254h101v-119h-101v-135h-131v135h-497l628 834v-715z" />
    <glyph glyph-name="onehalf" unicode="&#xbd;" horiz-adv-x="1775" 
d="M1186 1577l104 -53l-901 -1557l-104 58zM1694 119v-119h-650l441 498q78 90 78 162q1 72 -59 120t-132 47q-72 0 -122 -43t-54 -112h-137q14 126 98 200t216 74t226 -80q95 -80 95 -196t-68 -193l-317 -358h385zM258 618v807h-176l70 119h237v-926h-131z" />
    <glyph glyph-name="threequarters" unicode="&#xbe;" horiz-adv-x="1775" 
d="M1407 1577l104 -53l-901 -1557l-104 58zM377 1180q88 0 140 34t52 103t-51 105t-118 36q-66 0 -110 -28t-44 -87h-137q18 113 94 173q77 60 201 61q124 0 210 -69t86 -181q0 -137 -135 -209q150 -66 150 -229q0 -127 -94 -203q-95 -76 -225 -76t-219 69t-95 181h131
q20 -131 184 -131q76 0 131 45q56 45 56 121t-60 123t-147 43v119zM1462 254v336h-6l-252 -336h258zM1593 254h101v-119h-101v-135h-131v135h-497l628 834v-715z" />
    <glyph glyph-name="questiondown" unicode="&#xbf;" horiz-adv-x="927" 
d="M457 1040q49 0 84 -36t35 -83q0 -48 -36 -83q-34 -35 -83 -35t-84 35t-35 83q0 47 35 83t84 36zM458 651q136 0 232 -95t96 -229t-67 -197q-68 -62 -191 -107q-44 -18 -70 -27q-26 -8 -52 -20t-37 -18q-11 -7 -31 -20q-66 -42 -66 -129q0 -86 54 -135t130 -49
q77 0 129 52t52 124q0 20 -12 66h192l4 -68q7 -145 -105 -246t-264 -101t-259 104t-107 261t111 251q63 55 254 114q150 45 149 150q0 61 -41 104t-105 43q-64 1 -104 -45q-41 -46 -39 -112h-186q-6 131 96 230q101 99 237 99z" />
    <glyph glyph-name="Agrave" unicode="&#xc0;" horiz-adv-x="1439" 
d="M426 1948l170 90l256 -340l-90 -56zM995 563l-274 625l-275 -625h549zM1075 387h-708l-177 -387h-206l737 1610l737 -1610h-207z" />
    <glyph glyph-name="Aacute" unicode="&#xc1;" horiz-adv-x="1439" 
d="M846 2038l170 -90l-336 -306l-90 56zM995 563l-274 625l-275 -625h549zM1075 387h-708l-177 -387h-206l737 1610l737 -1610h-207z" />
    <glyph glyph-name="Acircumflex" unicode="&#xc2;" horiz-adv-x="1439" 
d="M393 1741l326 297l330 -297l-121 -94l-209 196l-207 -196zM995 563l-274 625l-275 -625h549zM1075 387h-708l-177 -387h-206l737 1610l737 -1610h-207z" />
    <glyph glyph-name="Atilde" unicode="&#xc3;" horiz-adv-x="1439" 
d="M574 1956q68 0 167 -54q100 -54 146 -55q72 0 131 99l96 -80q-82 -168 -242 -168q-59 0 -170 52q-110 52 -152 52t-74 -28t-50 -66l-96 82q21 34 65 88q68 78 179 78zM995 563l-274 625l-275 -625h549zM1075 387h-708l-177 -387h-206l737 1610l737 -1610h-207z" />
    <glyph glyph-name="Adieresis" unicode="&#xc4;" horiz-adv-x="1439" 
d="M938 1956q51 0 87 -36t36 -87t-36 -88t-88 -37t-88 37t-36 88t37 87t88 36zM506 1956q51 0 87 -36t36 -87t-36 -88t-87 -37t-88 37t-37 88t37 87t88 36zM995 563l-274 625l-275 -625h549zM1075 387h-708l-177 -387h-206l737 1610l737 -1610h-207z" />
    <glyph glyph-name="Aring" unicode="&#xc5;" horiz-adv-x="1439" 
d="M722 1739q38 1 66 27t27 65q0 39 -28 67q-27 28 -65 27q-38 0 -66 -28q-28 -29 -28 -67t28 -65q28 -26 66 -26zM722 2017q77 0 131 -54t54 -132t-54 -131t-132 -53t-131 53t-53 131t54 132t131 54zM995 563l-274 625l-275 -625h549zM1075 387h-708l-177 -387h-206
l737 1610l737 -1610h-207z" />
    <glyph glyph-name="AE" unicode="&#xc6;" horiz-adv-x="2041" 
d="M1018 563l-266 598l-283 -598h549zM1090 387h-703l-176 -387h-211l741 1544h676l78 -176h-633l187 -432h616l82 -176h-619l248 -584h637l78 -176h-831z" />
    <glyph glyph-name="Ccedilla" unicode="&#xc7;" horiz-adv-x="1353" 
d="M840 -94l-215 -277l-109 56l178 280zM855 1401q-247 1 -424 -185t-177 -444t175 -443t419 -185t424 159v-227q-184 -109 -406 -109q-332 -1 -568 231t-237 570q0 338 240 574t582 235q219 0 389 -104v-224q-170 152 -417 152z" />
    <glyph glyph-name="Egrave" unicode="&#xc8;" horiz-adv-x="1067" 
d="M281 1948l170 90l256 -340l-91 -56zM147 0v1544h830v-176h-637v-432h618v-176h-618v-584h637v-176h-830z" />
    <glyph glyph-name="Eacute" unicode="&#xc9;" horiz-adv-x="1067" 
d="M659 2038l170 -90l-335 -306l-91 56zM147 0v1544h830v-176h-637v-432h618v-176h-618v-584h637v-176h-830z" />
    <glyph glyph-name="Ecircumflex" unicode="&#xca;" horiz-adv-x="1067" 
d="M231 1741l326 297l330 -297l-121 -94l-209 196l-207 -196zM147 0v1544h830v-176h-637v-432h618v-176h-618v-584h637v-176h-830z" />
    <glyph glyph-name="Edieresis" unicode="&#xcb;" horiz-adv-x="1067" 
d="M776 1956q51 0 87 -36t36 -87t-36 -88t-87 -37t-88 37t-37 88t37 87t88 36zM344 1956q51 0 87 -36t36 -87t-36 -88t-88 -37t-88 37t-36 88t37 87t88 36zM147 0v1544h830v-176h-637v-432h618v-176h-618v-584h637v-176h-830z" />
    <glyph glyph-name="Igrave" unicode="&#xcc;" horiz-adv-x="475" 
d="M-37 1948l170 90l256 -340l-90 -56zM334 1544v-1544h-193v1544h193z" />
    <glyph glyph-name="Iacute" unicode="&#xcd;" horiz-adv-x="475" 
d="M342 2038l170 -90l-336 -306l-90 56zM334 1544v-1544h-193v1544h193z" />
    <glyph glyph-name="Icircumflex" unicode="&#xce;" horiz-adv-x="475" 
d="M-90 1741l326 297l329 -297l-121 -94l-208 196l-207 -196zM334 1544v-1544h-193v1544h193z" />
    <glyph glyph-name="Idieresis" unicode="&#xcf;" horiz-adv-x="475" 
d="M455 1956q51 0 87 -36t36 -87t-36 -88t-88 -37t-88 37t-36 88t37 87t88 36zM23 1956q51 0 87 -36t36 -87t-36 -88t-87 -37t-89 37q-37 37 -36 88q0 51 36 87q38 36 89 36zM334 1544v-1544h-193v1544h193z" />
    <glyph glyph-name="Eth" unicode="&#xd0;" horiz-adv-x="1361" 
d="M324 1368v-463h274v-164h-274v-565h67q315 0 513 129q103 68 162 187q58 120 58 282q0 456 -451 563q-126 31 -282 31h-67zM131 905v639h320q375 0 621 -198t245 -571q0 -375 -244 -575t-629 -200h-313v741h-131v164h131z" />
    <glyph glyph-name="Ntilde" unicode="&#xd1;" horiz-adv-x="1607" 
d="M658 1956q68 0 167 -54q100 -54 146 -55q72 0 131 99l96 -80q-82 -168 -242 -168q-59 0 -170 52q-110 52 -152 52t-74 -28t-50 -66l-96 82q21 34 65 88q68 78 179 78zM129 0v1618l1159 -1215v1141h193v-1607l-1159 1214v-1151h-193z" />
    <glyph glyph-name="Ograve" unicode="&#xd2;" horiz-adv-x="1695" 
d="M573 1948l170 90l256 -340l-90 -56zM848 147q252 -1 434 181t182 443t-175 443t-441 182t-441 -182t-175 -443t182 -443t434 -181zM848 1577q332 0 570 -237q238 -238 239 -574q0 -336 -236 -567q-235 -231 -573 -231t-574 230q-236 232 -236 569t240 573
q238 236 570 237z" />
    <glyph glyph-name="Oacute" unicode="&#xd3;" horiz-adv-x="1695" 
d="M952 2038l170 -90l-336 -306l-90 56zM848 147q252 -1 434 181t182 443t-175 443t-441 182t-441 -182t-175 -443t182 -443t434 -181zM848 1577q332 0 570 -237q238 -238 239 -574q0 -336 -236 -567q-235 -231 -573 -231t-574 230q-236 232 -236 569t240 573
q238 236 570 237z" />
    <glyph glyph-name="Ocircumflex" unicode="&#xd4;" horiz-adv-x="1695" 
d="M520 1741l326 297l330 -297l-121 -94l-209 196l-207 -196zM848 147q252 -1 434 181t182 443t-175 443t-441 182t-441 -182t-175 -443t182 -443t434 -181zM848 1577q332 0 570 -237q238 -238 239 -574q0 -336 -236 -567q-235 -231 -573 -231t-574 230q-236 232 -236 569
t240 573q238 236 570 237z" />
    <glyph glyph-name="Otilde" unicode="&#xd5;" horiz-adv-x="1695" 
d="M700 1956q68 0 168 -54t146 -55q72 0 131 99l96 -80q-82 -168 -242 -168q-59 0 -170 52t-153 52t-73 -28q-32 -28 -50 -66l-96 82q21 34 65 88q67 78 178 78zM848 147q252 -1 434 181t182 443t-175 443t-441 182t-441 -182t-175 -443t182 -443t434 -181zM848 1577
q332 0 570 -237q238 -238 239 -574q0 -336 -236 -567q-235 -231 -573 -231t-574 230q-236 232 -236 569t240 573q238 236 570 237z" />
    <glyph glyph-name="Odieresis" unicode="&#xd6;" horiz-adv-x="1695" 
d="M1065 1956q51 0 87 -36t36 -87t-36 -88t-88 -37t-88 37t-36 88t37 87t88 36zM633 1956q51 0 87 -36t36 -87t-36 -88t-87 -37t-88 37t-37 88t37 87t88 36zM848 147q252 -1 434 181t182 443t-175 443t-441 182t-441 -182t-175 -443t182 -443t434 -181zM848 1577
q332 0 570 -237q238 -238 239 -574q0 -336 -236 -567q-235 -231 -573 -231t-574 230q-236 232 -236 569t240 573q238 236 570 237z" />
    <glyph glyph-name="multiply" unicode="&#xd7;" 
d="M68 924l122 125l402 -400l401 400l123 -125l-399 -400l399 -399l-123 -125l-401 399l-402 -399l-122 125l399 399z" />
    <glyph glyph-name="Oslash" unicode="&#xd8;" horiz-adv-x="1695" 
d="M39 788q0 316 239 552t554 237q315 0 542 -197l197 195l110 -109l-200 -196q176 -221 176 -498q0 -342 -236 -573t-573 -232q-289 0 -510 176l-213 -209l-111 109l213 209q-188 220 -188 536zM365 387l880 866q-163 143 -413 143t-425 -182t-176 -442q1 -219 134 -385z
M848 147q252 -1 434 181t182 444q1 209 -114 369l-877 -865q166 -129 375 -129z" />
    <glyph glyph-name="Ugrave" unicode="&#xd9;" horiz-adv-x="1370" 
d="M412 1948l170 90l256 -340l-90 -56zM121 1544h192v-911q0 -485 373 -486q373 0 373 486v911h192v-977q-1 -262 -153 -431t-412 -169t-413 169t-152 431v977z" />
    <glyph glyph-name="Uacute" unicode="&#xda;" horiz-adv-x="1370" 
d="M791 2038l170 -90l-336 -306l-90 56zM121 1544h192v-911q0 -485 373 -486q373 0 373 486v911h192v-977q-1 -262 -153 -431t-412 -169t-413 169t-152 431v977z" />
    <glyph glyph-name="Ucircumflex" unicode="&#xdb;" horiz-adv-x="1370" 
d="M358 1741l326 297l330 -297l-121 -94l-209 196l-207 -196zM121 1544h192v-911q0 -485 373 -486q373 0 373 486v911h192v-977q-1 -262 -153 -431t-412 -169t-413 169t-152 431v977z" />
    <glyph glyph-name="Udieresis" unicode="&#xdc;" horiz-adv-x="1370" 
d="M903 1956q51 0 87 -36t36 -87t-36 -88t-87 -37t-88 37t-37 88t37 87t88 36zM471 1956q51 0 87 -36t36 -87t-36 -88t-88 -37t-88 37t-36 88t37 87t88 36zM121 1544h192v-911q0 -485 373 -486q373 0 373 486v911h192v-977q-1 -262 -153 -431t-412 -169t-413 169t-152 431
v977z" />
    <glyph glyph-name="Yacute" unicode="&#xdd;" horiz-adv-x="1173" 
d="M754 2038l170 -90l-336 -306l-90 56zM684 0h-192v672l-504 872h221l379 -659l379 659h221l-504 -872v-672z" />
    <glyph glyph-name="Thorn" unicode="&#xde;" horiz-adv-x="1013" 
d="M340 1085v-553h61q294 0 375 136q35 59 35 146q0 172 -141 227q-115 44 -279 44h-51zM340 360v-360h-193v1544h193v-287h29q342 1 482 -111t140 -338q-1 -226 -151 -337t-389 -111h-111z" />
    <glyph glyph-name="germandbls" unicode="&#xdf;" horiz-adv-x="1187" 
d="M578 139q160 0 280 115q120 114 119 280q0 166 -112 264t-287 109v180q116 -2 196 81t80 199q0 115 -78 189t-185 74t-174 -60q-37 -32 -65 -125t-28 -164v-1281h-185v791h-82v172h82v303q0 537 455 536q190 0 317 -125t127 -317q0 -227 -196 -342q147 -48 233 -188
t86 -302q-1 -240 -173 -406t-410 -155v172z" />
    <glyph glyph-name="agrave" unicode="&#xe0;" horiz-adv-x="1138" 
d="M326 1413l170 90l256 -340l-90 -55zM1026 958v-958h-184v150h-4q-123 -182 -330 -182t-331 150q-124 152 -124 362t125 358t330 149q205 0 330 -188h4v159h184zM544 131q142 0 225 100q83 101 83 247t-84 246t-224 99q-140 0 -223 -101q-83 -102 -83 -244t81 -245
q83 -102 225 -102z" />
    <glyph glyph-name="aacute" unicode="&#xe1;" horiz-adv-x="1138" 
d="M694 1503l170 -90l-336 -305l-90 55zM1026 958v-958h-184v150h-4q-123 -182 -330 -182t-331 150q-124 152 -124 362t125 358t330 149q205 0 330 -188h4v159h184zM544 131q142 0 225 100q83 101 83 247t-84 246t-224 99q-140 0 -223 -101q-83 -102 -83 -244t81 -245
q83 -102 225 -102z" />
    <glyph glyph-name="acircumflex" unicode="&#xe2;" horiz-adv-x="1138" 
d="M242 1206l325 297l330 -297l-121 -94l-209 197l-207 -197zM1026 958v-958h-184v150h-4q-123 -182 -330 -182t-331 150q-124 152 -124 362t125 358t330 149q205 0 330 -188h4v159h184zM544 131q142 0 225 100q83 101 83 247t-84 246t-224 99q-140 0 -223 -101
q-83 -102 -83 -244t81 -245q83 -102 225 -102z" />
    <glyph glyph-name="atilde" unicode="&#xe3;" horiz-adv-x="1138" 
d="M735 1313q72 0 131 98l97 -80q-82 -168 -242 -168q-59 1 -170 53t-153 52t-74 -28t-50 -66l-96 81q51 93 133 142q108 63 277 -29q102 -55 147 -55zM1026 958v-958h-184v150h-4q-123 -182 -330 -182t-331 150q-124 152 -124 362t125 358t330 149q205 0 330 -188h4v159
h184zM544 131q142 0 225 100q83 101 83 247t-84 246t-224 99q-140 0 -223 -101q-83 -102 -83 -244t81 -245q83 -102 225 -102z" />
    <glyph glyph-name="adieresis" unicode="&#xe4;" horiz-adv-x="1138" 
d="M786 1421q51 0 87 -36t36 -87t-36 -88q-36 -36 -88 -36t-88 36q-35 36 -35 87q0 52 36 88q37 36 88 36zM354 1421q51 0 87 -36t36 -87t-36 -88q-36 -36 -87 -36t-88 36t-37 87q0 52 37 88t88 36zM1026 958v-958h-184v150h-4q-123 -182 -330 -182t-331 150
q-124 152 -124 362t125 358t330 149q205 0 330 -188h4v159h184zM544 131q142 0 225 100q83 101 83 247t-84 246t-224 99q-140 0 -223 -101q-83 -102 -83 -244t81 -245q83 -102 225 -102z" />
    <glyph glyph-name="aring" unicode="&#xe5;" horiz-adv-x="1138" 
d="M664 1317q0 39 -28 67t-66 27q-38 0 -66 -28q-28 -29 -27 -67q-1 -38 27 -64t66 -27q38 1 66 27t28 65zM570 1503q77 0 131 -54q55 -54 55 -132t-54 -131t-133 -53q-78 0 -131 54t-53 131t54 131t131 54zM1026 958v-958h-184v150h-4q-123 -182 -330 -182t-331 150
q-124 152 -124 362t125 358t330 149q205 0 330 -188h4v159h184zM544 131q142 0 225 100q83 101 83 247t-84 246t-224 99q-140 0 -223 -101q-83 -102 -83 -244t81 -245q83 -102 225 -102z" />
    <glyph glyph-name="ae" unicode="&#xe6;" horiz-adv-x="1652" 
d="M809 145q-117 -178 -389 -178q-134 0 -250 81t-117 232q1 150 105 236t273 86t276 -88v66q0 248 -252 247q-166 0 -262 -30v164q304 61 480 -14q93 -40 136 -118q127 158 355 158t344 -142q114 -142 114 -368v-28h-731q2 -129 82 -223q79 -94 193 -95q114 0 179 46
t121 140l156 -88q-68 -123 -186 -193t-258 -69q-215 0 -369 178zM455 446q-86 0 -158 -42t-72 -120t74 -115q74 -38 161 -38t162 40q74 40 74 119q0 80 -78 118t-163 38zM905 588h537q-16 112 -86 176t-177 64t-183 -68q-75 -68 -91 -172z" />
    <glyph glyph-name="ccedilla" unicode="&#xe7;" horiz-adv-x="903" 
d="M614 -94l-215 -277l-108 56l178 280zM571 815q-147 0 -240 -100q-93 -99 -93 -241t93 -238t241 -96t259 126v-235q-119 -63 -264 -64q-213 -1 -363 145t-151 363q0 217 151 365t374 147q144 0 253 -63v-238q-113 129 -260 129z" />
    <glyph glyph-name="egrave" unicode="&#xe8;" horiz-adv-x="999" 
d="M256 1413l170 90l256 -340l-90 -55zM248 588h536q-16 112 -86 176t-177 64t-182 -68t-91 -172zM969 449h-731q2 -129 81 -224q79 -94 193 -94t179 46t122 140l156 -88q-68 -123 -186 -193t-259 -69q-215 -1 -343 143t-128 367t121 367t343 143q222 0 337 -142t115 -368
v-28z" />
    <glyph glyph-name="eacute" unicode="&#xe9;" horiz-adv-x="999" 
d="M625 1503l170 -90l-336 -305l-90 55zM248 588h536q-16 112 -86 176t-177 64t-182 -68t-91 -172zM969 449h-731q2 -129 81 -224q79 -94 193 -94t179 46t122 140l156 -88q-68 -123 -186 -193t-259 -69q-215 -1 -343 143t-128 367t121 367t343 143q222 0 337 -142t115 -368
v-28z" />
    <glyph glyph-name="ecircumflex" unicode="&#xea;" horiz-adv-x="999" 
d="M172 1206l326 297l329 -297l-120 -94l-209 197l-207 -197zM248 588h536q-16 112 -86 176t-177 64t-182 -68t-91 -172zM969 449h-731q2 -129 81 -224q79 -94 193 -94t179 46t122 140l156 -88q-68 -123 -186 -193t-259 -69q-215 -1 -343 143t-128 367t121 367t343 143
q222 0 337 -142t115 -368v-28z" />
    <glyph glyph-name="edieresis" unicode="&#xeb;" horiz-adv-x="999" 
d="M717 1421q51 0 87 -36t36 -87t-36 -88q-36 -36 -88 -36t-88 36t-36 87q0 52 37 88t88 36zM285 1421q51 0 87 -36t36 -87t-36 -88q-36 -36 -87 -36t-88 36t-37 87q0 52 37 88t88 36zM248 588h536q-16 112 -86 176t-177 64t-182 -68t-91 -172zM969 449h-731q2 -129 81 -224
q79 -94 193 -94t179 46t122 140l156 -88q-68 -123 -186 -193t-259 -69q-215 -1 -343 143t-128 367t121 367t343 143q222 0 337 -142t115 -368v-28z" />
    <glyph glyph-name="igrave" unicode="&#xec;" horiz-adv-x="520" 
d="M-14 1413l170 90l256 -340l-90 -55zM352 958v-958h-184v958h184z" />
    <glyph glyph-name="iacute" unicode="&#xed;" horiz-adv-x="520" 
d="M365 1503l170 -90l-336 -305l-90 55zM352 958v-958h-184v958h184z" />
    <glyph glyph-name="icircumflex" unicode="&#xee;" horiz-adv-x="520" 
d="M-68 1206l326 297l330 -297l-121 -94l-209 197l-207 -197zM352 958v-958h-184v958h184z" />
    <glyph glyph-name="idieresis" unicode="&#xef;" horiz-adv-x="520" 
d="M477 1421q51 0 87 -36t36 -87t-36 -88q-36 -36 -87 -36t-88 36t-37 87q0 52 37 88t88 36zM45 1421q51 0 87 -36t36 -87t-36 -88q-36 -36 -88 -36t-88 36t-36 87q0 52 37 88t88 36zM352 958v-958h-184v958h184z" />
    <glyph glyph-name="eth" unicode="&#xf0;" horiz-adv-x="1105" 
d="M1065 498q0 -236 -145 -383q-146 -147 -364 -147t-366 146q-148 148 -149 363q0 215 148 363t364 147q99 0 179 -48q4 -3 20 -11t18 -10q-119 244 -285 450l-301 -172l-90 111l297 170q-111 123 -227 215l117 104q127 -88 264 -231l297 170l86 -113l-289 -166
q186 -219 306 -470q120 -252 120 -488zM553 811q-135 0 -231 -98q-96 -99 -96 -235t96 -235t231 -99t231 98q96 100 96 236t-96 234t-231 99z" />
    <glyph glyph-name="ntilde" unicode="&#xf1;" horiz-adv-x="1071" 
d="M702 1313q72 0 132 98l96 -80q-82 -168 -242 -168q-59 1 -170 53t-153 52q-41 0 -73 -28t-50 -66l-97 81q107 168 228 166q84 0 184 -54t145 -54zM311 958v-129h4q41 76 120 117t169 41q188 -1 264 -111t76 -305v-571h-184v549q0 141 -40 208t-166 67t-173 -62
q-25 -33 -40 -63q-30 -60 -30 -259v-440h-184v958h184z" />
    <glyph glyph-name="ograve" unicode="&#xf2;" horiz-adv-x="1105" 
d="M258 1413l170 90l256 -340l-90 -55zM553 811q-135 0 -231 -98q-96 -99 -96 -235t96 -235t231 -99t231 98q96 100 96 236t-96 234t-231 99zM553 987q215 0 363 -147q148 -146 148 -362t-148 -363t-363 -147t-363 146q-148 148 -149 363q0 215 148 363q149 147 364 147z
" />
    <glyph glyph-name="oacute" unicode="&#xf3;" horiz-adv-x="1105" 
d="M678 1503l170 -90l-336 -305l-90 55zM553 811q-135 0 -231 -98q-96 -99 -96 -235t96 -235t231 -99t231 98q96 100 96 236t-96 234t-231 99zM553 987q215 0 363 -147q148 -146 148 -362t-148 -363t-363 -147t-363 146q-148 148 -149 363q0 215 148 363q149 147 364 147z
" />
    <glyph glyph-name="ocircumflex" unicode="&#xf4;" horiz-adv-x="1105" 
d="M225 1206l326 297l330 -297l-121 -94l-209 197l-207 -197zM553 811q-135 0 -231 -98q-96 -99 -96 -235t96 -235t231 -99t231 98q96 100 96 236t-96 234t-231 99zM553 987q215 0 363 -147q148 -146 148 -362t-148 -363t-363 -147t-363 146q-148 148 -149 363
q0 215 148 363q149 147 364 147z" />
    <glyph glyph-name="otilde" unicode="&#xf5;" horiz-adv-x="1105" 
d="M719 1313q72 0 131 98l96 -80q-82 -168 -241 -168q-59 1 -170 53t-153 52t-74 -28t-50 -66l-96 81q18 33 54 75q80 93 168 92q89 -1 189 -55t146 -54zM553 811q-135 0 -231 -98q-96 -99 -96 -235t96 -235t231 -99t231 98q96 100 96 236t-96 234t-231 99zM553 987
q215 0 363 -147q148 -146 148 -362t-148 -363t-363 -147t-363 146q-148 148 -149 363q0 215 148 363q149 147 364 147z" />
    <glyph glyph-name="odieresis" unicode="&#xf6;" horiz-adv-x="1105" 
d="M770 1421q51 0 87 -36t36 -87t-36 -88q-36 -36 -88 -36t-88 36t-36 87q0 52 37 88t88 36zM338 1421q51 0 87 -36t36 -87t-36 -88q-36 -36 -87 -36t-88 36t-37 87q0 52 37 88t88 36zM553 811q-135 0 -231 -98q-96 -99 -96 -235t96 -235t231 -99t231 98q96 100 96 236
t-96 234t-231 99zM553 987q215 0 363 -147q148 -146 148 -362t-148 -363t-363 -147t-363 146q-148 148 -149 363q0 215 148 363q149 147 364 147z" />
    <glyph glyph-name="divide" unicode="&#xf7;" 
d="M592 1049q53 0 90 -38t37 -90q0 -51 -37 -89t-90 -38t-90 38q-37 36 -37 88t37 91q37 38 90 38zM592 254q53 0 90 -38t37 -90t-37 -89t-90 -37t-90 37t-37 89t37 90t90 38zM68 436v176h1048v-176h-1048z" />
    <glyph glyph-name="oslash" unicode="&#xf8;" horiz-adv-x="1105" 
d="M41 492q0 200 148 348t364 147q178 0 317 -106l125 125l95 -88l-127 -130q102 -135 102 -311q-1 -215 -149 -362t-363 -148q-174 0 -305 99l-142 -144l-90 96l138 138q-113 136 -113 336zM880 460q0 118 -51 193l-452 -456q78 -53 176 -54q135 -1 231 99t96 218zM553 811
q-135 0 -231 -98t-96 -218t59 -206l456 461q-86 61 -188 61z" />
    <glyph glyph-name="ugrave" unicode="&#xf9;" horiz-adv-x="1048" 
d="M229 1413l170 90l256 -340l-90 -55zM119 958h184v-530q0 -133 48 -211t173 -78t173 78t48 211v530h185v-550q0 -205 -100 -323t-306 -118q-205 0 -305 118t-100 323v550z" />
    <glyph glyph-name="uacute" unicode="&#xfa;" horiz-adv-x="1048" 
d="M649 1503l170 -90l-336 -305l-90 55zM119 958h184v-530q0 -133 48 -211t173 -78t173 78t48 211v530h185v-550q0 -205 -100 -323t-306 -118q-205 0 -305 118t-100 323v550z" />
    <glyph glyph-name="ucircumflex" unicode="&#xfb;" horiz-adv-x="1048" 
d="M197 1206l325 297l330 -297l-121 -94l-209 197l-207 -197zM119 958h184v-530q0 -133 48 -211t173 -78t173 78t48 211v530h185v-550q0 -205 -100 -323t-306 -118q-205 0 -305 118t-100 323v550z" />
    <glyph glyph-name="udieresis" unicode="&#xfc;" horiz-adv-x="1048" 
d="M741 1421q51 0 87 -36t36 -87t-36 -88q-36 -36 -88 -36t-88 36t-36 87q0 52 37 88t88 36zM309 1421q51 0 87 -36t36 -87t-36 -88q-36 -36 -87 -36t-88 36t-37 87q0 52 37 88t88 36zM119 958h184v-530q0 -133 48 -211t173 -78t173 78t48 211v530h185v-550
q0 -205 -100 -323t-306 -118q-205 0 -305 118t-100 323v550z" />
    <glyph glyph-name="yacute" unicode="&#xfd;" horiz-adv-x="991" 
d="M662 1503l169 -90l-335 -305l-90 55zM412 164l-439 794h215l324 -608l301 608h207l-776 -1507h-209z" />
    <glyph glyph-name="thorn" unicode="&#xfe;" horiz-adv-x="1138" 
d="M287 478q0 -142 82 -244t224 -103q142 0 225 100q83 101 83 247t-84 246t-224 99q-140 0 -223 -101q-83 -102 -83 -244zM297 1778v-979h4q125 188 330 188t330 -148q125 -147 125 -359t-124 -362q-122 -150 -335 -151q-97 0 -183 49t-143 134h-4v-699h-184v2327h184z" />
    <glyph glyph-name="ydieresis" unicode="&#xff;" horiz-adv-x="991" 
d="M733 1421q51 0 87 -36t36 -87t-36 -88q-36 -36 -88 -36t-88 36t-36 87q0 52 37 88t88 36zM301 1421q51 0 87 -36t36 -87t-36 -88q-36 -36 -87 -36t-88 36t-37 87q0 52 37 88t88 36zM412 164l-439 794h215l324 -608l301 608h207l-776 -1507h-209z" />
    <glyph glyph-name="dotlessi" unicode="&#x131;" horiz-adv-x="520" 
d="M352 958v-958h-184v958h184z" />
    <glyph glyph-name="Lslash" unicode="&#x141;" horiz-adv-x="788" 
d="M340 1544v-590l242 170v-184l-242 -162v-602h469v-176h-662v659l-165 -118v186l165 111v706h193z" />
    <glyph glyph-name="lslash" unicode="&#x142;" horiz-adv-x="522" 
d="M168 0v844l-166 -113v166l166 113v768h184v-643l168 114v-168l-168 -112v-969h-184z" />
    <glyph glyph-name="OE" unicode="&#x152;" horiz-adv-x="2340" 
d="M848 147q252 -1 434 181t182 443t-175 443t-441 182t-441 -182t-175 -443t182 -443t434 -181zM1470 0v258h-4q-104 -139 -267 -216t-351 -75q-338 -1 -574 231t-236 569t240 573q239 236 570 237q184 -6 352 -84t266 -219h4v270h809v-176h-634v-432h616v-176h-616v-584
h634v-176h-809z" />
    <glyph glyph-name="oe" unicode="&#x153;" horiz-adv-x="1837" 
d="M1806 449h-731q2 -129 82 -223q79 -94 193 -95q114 0 179 46t122 140l155 -88q-68 -123 -186 -193t-249 -70q-132 0 -241 56t-167 156q-68 -100 -179 -156t-231 -55q-215 -1 -363 147t-149 363q0 215 148 363t364 147q119 -4 231 -61t179 -154q131 207 395 215
q219 0 334 -142t114 -368v-28zM553 811q-135 0 -231 -98q-96 -99 -96 -235t96 -235t231 -99t231 98q96 100 96 236t-96 234t-231 99zM1083 588h537q-16 112 -86 176t-177 64t-183 -68t-91 -172z" />
    <glyph glyph-name="Scaron" unicode="&#x160;" horiz-adv-x="1099" 
d="M244 1944l118 94l207 -197l209 197l121 -94l-330 -297zM328 1178q0 -139 215 -222l110 -43q183 -72 283 -178q100 -107 100 -301t-142 -330t-340 -137q-198 0 -331 122t-157 310l194 41q-2 -125 85 -209t212 -84q125 -1 206 89t81 208t-71 182t-195 115l-107 45
q-158 68 -247 156t-89 236q0 180 135 290t320 109q266 -1 397 -234l-153 -92q-86 145 -248 146q-98 1 -178 -61t-80 -158z" />
    <glyph glyph-name="scaron" unicode="&#x161;" horiz-adv-x="786" 
d="M66 1409l118 94l207 -196l209 196l121 -94l-330 -297zM389 823q-39 0 -77 -33t-18 -95q5 -15 20 -28q14 -13 26 -23t38 -24q26 -12 40 -20t48 -22q136 -56 202 -123q65 -67 65 -186t-97 -211q-98 -92 -220 -91t-214 59t-130 156l157 72q68 -123 174 -123q59 0 103 38
q43 38 43 97t-68 105l-180 96q-94 51 -139 101t-45 154t83 184t199 81q181 0 263 -168l-150 -80q-41 84 -123 84z" />
    <glyph glyph-name="Ydieresis" unicode="&#x178;" horiz-adv-x="1173" 
d="M829 1956q51 0 87 -36t36 -87t-36 -88t-87 -37t-88 37t-36 88q0 51 36 87q37 36 88 36zM397 1956q51 0 87 -36t36 -87t-36 -88t-88 -37t-88 37t-36 88t37 87t88 36zM684 0h-192v672l-504 872h221l379 -659l379 659h221l-504 -872v-672z" />
    <glyph glyph-name="Zcaron" unicode="&#x17d;" horiz-adv-x="1130" 
d="M268 1944l119 94l207 -197l209 197l121 -94l-330 -297zM1114 176v-176h-1096l783 1368h-672v176h985l-782 -1368h782z" />
    <glyph glyph-name="zcaron" unicode="&#x17e;" horiz-adv-x="1013" 
d="M211 1409l119 94l207 -196l208 196l121 -94l-329 -297zM985 172v-172h-981l649 786h-538v172h897l-650 -786h623z" />
    <glyph glyph-name="florin" unicode="&#x192;" 
d="M78 -305h-49l30 176h39q122 0 176 58q31 32 59 73t66 262l109 631h-133l18 139h144l43 254q35 205 122 315q88 110 281 109q68 0 123 -14l-33 -172q-37 14 -84 14q-90 0 -140 -55q-47 -50 -77 -219l-45 -232h264l-18 -139h-268l-113 -621q-43 -267 -107 -374t-155 -156
t-252 -49z" />
    <glyph glyph-name="circumflex" unicode="&#x2c6;" horiz-adv-x="962" 
d="M154 1206l325 297l330 -297l-121 -94l-209 197l-207 -197z" />
    <glyph glyph-name="caron" unicode="&#x2c7;" horiz-adv-x="966" 
d="M156 1409l118 94l207 -196l209 196l121 -94l-330 -297z" />
    <glyph glyph-name="uni02C9" unicode="&#x2c9;" horiz-adv-x="1024" 
d="M143 1421h740v-139h-740v139z" />
    <glyph glyph-name="breve" unicode="&#x2d8;" horiz-adv-x="1003" 
d="M145 1421h148q66 -154 209 -153q80 0 128 38t83 115h145q-23 -127 -124 -208t-231 -81t-232 81q-101 81 -126 208z" />
    <glyph glyph-name="dotaccent" unicode="&#x2d9;" horiz-adv-x="737" 
d="M371 1421q51 0 87 -36t36 -87t-36 -88q-36 -36 -87 -36t-88 36t-37 87q0 52 37 88t88 36z" />
    <glyph glyph-name="ring" unicode="&#x2da;" horiz-adv-x="737" 
d="M276 1316q0 -38 28 -64t66 -27q38 1 66 27t27 65q0 39 -28 67q-27 28 -65 27q-38 0 -66 -28q-28 -29 -28 -67zM370 1503q77 0 131 -54t54 -132t-54 -131t-132 -53t-131 54q-54 54 -54 131t54 131t132 54z" />
    <glyph glyph-name="ogonek" unicode="&#x2db;" horiz-adv-x="696" 
d="M432 -33v-4q-125 -84 -125 -174q0 -96 115 -96q61 0 102 26l-14 -118q-55 -35 -134 -35t-142 45q-62 45 -62 123q0 133 166 233h94z" />
    <glyph glyph-name="tilde" unicode="&#x2dc;" horiz-adv-x="1044" 
d="M688 1313q72 0 131 98l96 -80q-82 -168 -241 -168q-59 1 -170 53t-153 52t-74 -28t-50 -66l-96 81q51 93 133 142q107 62 277 -29q102 -55 147 -55z" />
    <glyph glyph-name="hungarumlaut" unicode="&#x2dd;" horiz-adv-x="962" 
d="M334 1503l170 -90l-336 -305l-90 55zM715 1485l170 -90l-336 -305l-90 55z" />
    <glyph glyph-name="uni03A9" unicode="&#x3a9;" horiz-adv-x="1525" 
d="M418 143v7q-125 116 -206 294t-81 394q0 324 181 530t459 207q278 0 450 -215t172 -512q0 -222 -84 -406t-205 -292v-7h317v-143h-516v104q133 94 223 278t91 433q0 152 -49 288q-48 136 -154 231t-248 96q-209 0 -336 -178t-127 -426q0 -250 91 -442t220 -280v-104h-514
v143h316z" />
    <glyph glyph-name="uni03BC" unicode="&#x3bc;" horiz-adv-x="1048" 
d="M119 958h184v-530q0 -133 48 -211t173 -78t173 78t48 211v530h185v-550q0 -205 -100 -323t-306 -118q-115 0 -221 90v-606h-184v1507z" />
    <glyph glyph-name="pi" unicode="&#x3c0;" horiz-adv-x="1224" 
d="M997 1006v-682q0 -213 31 -324h-166q-35 63 -35 309v697h-378q-7 -232 -53 -542t-101 -464h-168q59 174 102 472t52 534q-162 0 -236 -27l-25 117q90 59 312 59h850l-15 -149h-170z" />
    <glyph glyph-name="uni2010" unicode="&#x2010;" horiz-adv-x="679" 
d="M117 733h448v-153h-448v153z" />
    <glyph glyph-name="endash" unicode="&#x2013;" horiz-adv-x="1024" 
d="M0 733h1024v-153h-1024v153z" />
    <glyph glyph-name="emdash" unicode="&#x2014;" horiz-adv-x="2048" 
d="M266 733h1516v-153h-1516v153z" />
    <glyph glyph-name="quoteleft" unicode="&#x2018;" horiz-adv-x="567" 
d="M285 967l-162 63l272 547l115 -47z" />
    <glyph glyph-name="quoteright" unicode="&#x2019;" horiz-adv-x="567" 
d="M283 1577l161 -64l-272 -546l-115 47z" />
    <glyph glyph-name="quotesinglbase" unicode="&#x201a;" horiz-adv-x="567" 
d="M336 244l160 -64l-273 -547l-112 48z" />
    <glyph glyph-name="quotedblleft" unicode="&#x201c;" horiz-adv-x="899" 
d="M285 967l-162 63l272 547l115 -47zM625 967l-162 63l272 547l115 -47z" />
    <glyph glyph-name="quotedblright" unicode="&#x201d;" horiz-adv-x="899" 
d="M614 1577l162 -64l-272 -546l-115 47zM274 1577l162 -64l-272 -546l-115 47z" />
    <glyph glyph-name="quotedblbase" unicode="&#x201e;" horiz-adv-x="899" 
d="M668 244l159 -64l-272 -547l-113 48zM328 244l159 -64l-272 -547l-113 48z" />
    <glyph glyph-name="dagger" unicode="&#x2020;" 
d="M500 1778h184v-564h371v-176h-371v-1218h-184v1218h-371v176h371v564z" />
    <glyph glyph-name="daggerdbl" unicode="&#x2021;" 
d="M500 1778h184v-490h371v-176h-371v-250h371v-176h-371v-864h-184v864h-371v176h371v250h-371v176h371v490z" />
    <glyph glyph-name="bullet" unicode="&#x2022;" 
d="M592 387q-160 0 -273 113q-113 114 -113 274t111 273q113 113 275 113t274 -114q112 -112 113 -273t-113 -273t-274 -113z" />
    <glyph glyph-name="ellipsis" unicode="&#x2026;" horiz-adv-x="2048" 
d="M340 205q49 0 84 -36t35 -84t-35 -83t-84 -35t-84 35t-35 83t35 84t84 36zM1708 205q49 0 84 -36t35 -84t-35 -83t-84 -35t-84 35t-35 83t35 84t84 36zM1024 205q49 0 84 -36t35 -84t-35 -83t-84 -35t-84 35t-35 83t35 84t84 36z" />
    <glyph glyph-name="perthousand" unicode="&#x2030;" horiz-adv-x="2273" 
d="M1870 547q-96 0 -167 -68t-71 -161q0 -92 71 -160t167 -68t167 68t71 160t-71 161q-71 68 -167 68zM1870 670q148 0 254 -104t106 -248q0 -146 -108 -248t-252 -102q-145 0 -253 102t-108 247t107 249t254 104zM1067 670q147 0 253 -104t107 -248q1 -146 -107 -248
t-253 -102t-253 102t-107 247q0 145 106 249q107 104 254 104zM406 1577q147 0 253 -103q107 -102 107 -248t-108 -248t-252 -104q-144 0 -253 102q-108 102 -108 248t107 250t254 103zM1067 547q-96 0 -167 -68t-71 -161q0 -92 71 -160t167 -68t167 68t71 160t-71 161
q-71 68 -167 68zM1141 1577l92 -53l-901 -1557l-94 51zM406 1454q-96 0 -167 -68t-71 -160t71 -161q71 -68 167 -68t166 68t71 161q-1 92 -71 160t-166 68z" />
    <glyph glyph-name="guilsinglleft" unicode="&#x2039;" horiz-adv-x="688" 
d="M227 655l305 -391l-114 -84l-373 475l373 492l114 -84z" />
    <glyph glyph-name="guilsinglright" unicode="&#x203a;" horiz-adv-x="688" 
d="M156 264l305 391l-305 408l114 84l373 -492l-373 -475z" />
    <glyph glyph-name="fraction" unicode="&#x2044;" horiz-adv-x="337" 
d="M567 1577l105 -53l-901 -1557l-105 58z" />
    <glyph glyph-name="Euro" unicode="&#x20ac;" 
d="M742 1575q232 0 348 -94v-178q-118 109 -302 109t-279 -114q-95 -113 -114 -301h604l-47 -141h-575l-2 -80l2 -84h518l-47 -141h-453q23 -207 120 -313t277 -106t298 108v-183q-104 -88 -338 -88q-465 0 -537 582h-160l47 141h99q-4 41 -4 84l2 80h-144l47 141h109
q35 270 167 424t364 154z" />
    <glyph glyph-name="afii61289" unicode="&#x2113;" horiz-adv-x="1042" 
d="M397 1180v-473q322 369 322 636q0 229 -150 230q-70 0 -121 -94t-51 -299zM233 1171q1 279 97 406t232 127t204 -100t68 -261q0 -367 -437 -808v-80q1 -172 65 -256t160 -84t171 62q73 63 120 149l80 -74q-139 -274 -401 -275q-176 0 -263 115t-93 295v29
q-45 -36 -123 -101l-52 99q145 127 172 153v604z" />
    <glyph glyph-name="trademark" unicode="&#x2122;" horiz-adv-x="1925" 
d="M766 1544v-131h-283v-731h-131v731h-282v131h696zM1855 1544v-862h-131v731h-4l-295 -731h-79l-287 731h-4v-731h-131v862h215l247 -608l256 608h213z" />
    <glyph glyph-name="Omega" unicode="&#x2126;" horiz-adv-x="1525" 
d="M418 143v7q-125 116 -206 294t-81 394q0 324 181 530t459 207q278 0 450 -215t172 -512q0 -222 -84 -406t-205 -292v-7h317v-143h-516v104q133 94 223 278t91 433q0 152 -49 288q-48 136 -154 231t-248 96q-209 0 -336 -178t-127 -426q0 -250 91 -442t220 -280v-104h-514
v143h316z" />
    <glyph glyph-name="estimated" unicode="&#x212e;" horiz-adv-x="1941" 
d="M1534 807v440q0 33 -21 53q-233 228 -545 228t-542 -236q-23 -23 -23 -55v-430q0 -14 13 -14h1110q8 0 8 14zM1864 750h-1448q-12 0 -13 -11v-438q0 -23 19 -49q231 -238 549 -238q169 0 319 71t256 196h129q-123 -143 -309 -227t-397 -85q-371 1 -632 235t-261 568
t261 570t632 235q371 0 633 -236t262 -569v-22z" />
    <glyph glyph-name="partialdiff" unicode="&#x2202;" horiz-adv-x="1173" 
d="M518 123h4q141 0 238 165q96 165 117 398q-27 84 -109 158t-202 74t-212 -126t-92 -296t70 -271q70 -102 186 -102zM530 1737q218 0 376 -216q159 -216 159 -626t-146 -664t-415 -254q-196 0 -304 152t-108 360q0 254 134 412t323 158q127 0 218 -67t126 -136h4
q2 25 2 94q0 281 -115 461q-114 180 -278 180t-287 -106l-57 129q150 123 368 123z" />
    <glyph glyph-name="uni2206" unicode="&#x2206;" horiz-adv-x="1384" 
d="M240 141h893l-302 834q-16 53 -70 204t-69 205h-8q-10 -45 -59 -185t-66 -191zM68 0v117l528 1474h199l520 -1472v-119h-1247z" />
    <glyph glyph-name="product" unicode="&#x220f;" horiz-adv-x="1497" 
d="M1440 1393h-232v-1608h-168v1608h-585v-1608h-168v1608h-230v157h1383v-157z" />
    <glyph glyph-name="summation" unicode="&#x2211;" 
d="M1137 -215h-1088v117l572 764l-547 764v120h1028v-147h-793v-8l506 -703l-551 -735v-8h873v-164z" />
    <glyph glyph-name="minus" unicode="&#x2212;" 
d="M68 436v176h1048v-176h-1048z" />
    <glyph glyph-name="uni2215" unicode="&#x2215;" horiz-adv-x="337" 
d="M567 1577l105 -53l-901 -1557l-105 58z" />
    <glyph glyph-name="uni2219" unicode="&#x2219;" horiz-adv-x="591" 
d="M297 643q49 0 84 -36t35 -84t-35 -83q-35 -34 -84 -34t-84 34t-35 83q0 48 35 84t84 36z" />
    <glyph glyph-name="radical" unicode="&#x221a;" horiz-adv-x="1230" 
d="M1231 1845l-475 -2175h-150l-340 1026l-160 -59l-32 104l299 117l268 -809q4 -23 18 -82t19 -84l4 -2q14 102 29 168l395 1796h125z" />
    <glyph glyph-name="infinity" unicode="&#x221e;" horiz-adv-x="1681" 
d="M1243 879h-2q-51 0 -106 -31q-55 -32 -83 -56t-84 -85t-61 -66q119 -133 189 -186t158 -53t148 71q58 71 58 173t-60 168t-157 65zM449 401h4q63 -1 101 23l57 36t49 41q30 28 42 41t43 47t39 42q-157 195 -245 229q-47 18 -103 19q-98 0 -156 -72t-58 -172t65 -167
q64 -67 162 -67zM1573 645v-2q0 -154 -99 -251t-235 -97q-98 0 -187 60t-208 198q-109 -125 -200 -192t-217 -67t-222 99q-96 98 -96 245t97 245t245 98q111 0 203 -67t196 -189q6 9 48 55t83 84t118 78q77 39 156 39q141 0 229 -93t89 -243z" />
    <glyph glyph-name="integral" unicode="&#x222b;" horiz-adv-x="780" 
d="M485 207q0 -309 -92 -449q-70 -117 -219 -116q-84 0 -141 34l28 125q133 -61 200 30t67 376q0 186 -15 570q-14 384 -14 565t27 290t90 176q80 88 207 88q73 1 118 -28l-26 -121q-33 23 -89 23t-98 -54q-72 -88 -71 -395q0 -172 14 -551t14 -563z" />
    <glyph glyph-name="approxequal" unicode="&#x2248;" horiz-adv-x="1204" 
d="M827 313q-59 -1 -109 19t-160 82t-178 63q-69 0 -116 -42t-96 -120l-72 60q49 96 127 152q78 57 158 57t124 -20q43 -20 83 -41t45 -25q6 -4 29 -16t56 -33q47 -29 113 -29t112 39t93 123l70 -62q-102 -207 -279 -207zM827 684q-59 0 -109 19t-158 82t-178 63
q-71 0 -118 -42t-96 -120l-72 59q49 99 127 155t157 56t118 -18t75 -36t51 -29t49 -29q48 -25 82 -39q35 -14 89 -14q100 0 192 161l70 -59q-102 -209 -279 -209z" />
    <glyph glyph-name="notequal" unicode="&#x2260;" horiz-adv-x="1204" 
d="M1094 897v-111h-375l-144 -313h519v-111h-562l-114 -251l-88 39l98 212h-319v111h364l141 313h-505v111h548l113 250l88 -39l-96 -211h332z" />
    <glyph glyph-name="lessequal" unicode="&#x2264;" horiz-adv-x="1204" 
d="M1096 16h-985v115h985v-115zM1087 219l-966 492v116l966 490v-133l-849 -412v-4l849 -416v-133z" />
    <glyph glyph-name="greaterequal" unicode="&#x2265;" horiz-adv-x="1204" 
d="M1094 16h-981v115h981v-115zM123 1317l967 -492v-114l-965 -492v133l848 414v4l-850 414v133z" />
    <glyph glyph-name="lozenge" unicode="&#x25ca;" horiz-adv-x="1232" 
d="M958 770l-299 610q-27 63 -41 121h-6q-20 -72 -41 -121l-299 -602l301 -614q27 -68 39 -117h9q12 57 36 115zM1114 774l-432 -872h-139l-426 872l432 875h139z" />
    <glyph glyph-name="fi" unicode="&#xfb01;" horiz-adv-x="1048" 
d="M478 1630q-121 0 -129 -195q-1 -24 -1 -65v-412h254v-172h-254v-786h-184v786h-84v172h84v467q0 377 309 377q68 1 129 -24v-187q-88 39 -124 39zM788 1526q52 0 90 -38t38 -90t-38 -89q-36 -37 -90 -37t-90 37t-36 89t36 90q37 38 90 38zM881 958v-958h-185v958h185z
" />
    <glyph glyph-name="fl" unicode="&#xfb02;" horiz-adv-x="1017" 
d="M478 1630q-121 0 -129 -195q-1 -24 -1 -65v-412h254v-172h-254v-786h-184v786h-84v172h84v467q0 377 309 377q68 1 129 -24v-187q-88 39 -124 39zM883 1778v-1778h-185v1778h185z" />
    <glyph glyph-name="a.superior" horiz-adv-x="684" 
d="M659 1559v-574h-120v88h-4q-80 -109 -214 -109t-216 91q-81 90 -81 217t82 216t213 89t218 -113h2v95h120zM344 1063q92 0 146 60q54 61 54 149t-54 147t-145 59t-145 -60q-54 -62 -54 -147t52 -147q54 -62 146 -61z" />
    <glyph glyph-name="o.superior" horiz-adv-x="663" 
d="M332 1470q-88 0 -150 -58t-61 -140q0 -82 61 -142q62 -60 150 -59q88 0 150 59q62 60 62 142t-62 140t-150 58zM332 1577q139 0 236 -88q98 -88 98 -218t-98 -218t-236 -88q-139 0 -236 88q-96 88 -96 218t96 218q97 88 236 88z" />
    <glyph glyph-name="one.superior" horiz-adv-x="708" 
d="M309 1425h-176l70 119h237v-926h-131v807z" />
    <glyph glyph-name="two.superior" horiz-adv-x="708" 
d="M680 737v-119h-649l440 498q78 90 78 162q1 72 -59 120t-132 48t-122 -43t-54 -113h-137q14 125 98 200t216 75q133 0 227 -80t94 -196t-68 -193l-317 -359h385z" />
    <glyph glyph-name="three.superior" horiz-adv-x="708" 
d="M334 1180q88 0 140 34t52 103t-51 105t-118 36t-111 -28t-43 -87h-137q18 113 94 173t200 61q124 0 211 -69q86 -69 86 -181q0 -137 -135 -209q150 -66 150 -229q0 -127 -94 -203t-224 -76t-220 69q-89 69 -95 181h131q20 -131 184 -131q76 0 131 45t55 121t-58 123
q-60 47 -148 43v119z" />
    </font>
</defs>
</svg>
