<?xml version="1.0" standalone="no"?>
<!DOCTYPE svg PUBLIC "-//W3C//DTD SVG 1.1//EN" "http://www.w3.org/Graphics/SVG/1.1/DTD/svg11.dtd" >
<svg xmlns="http://www.w3.org/2000/svg" xmlns:xlink="http://www.w3.org/1999/xlink" version="1.1">
<metadata>
Created by FontForge 20161003 at Sun Mar  5 12:05:10 2017
 By www-data
Contemporary bi-script Arabic Latin Typeface. Arabic letters are designed by Pascal Zoghbi while the Latin letters are designed by Ian Party. 
</metadata>
<defs>
<font id="29LTBukra" horiz-adv-x="0" >
  <font-face 
    font-family="29LT Bukra"
    font-weight="400"
    font-stretch="normal"
    units-per-em="1000"
    panose-1="0 11 9 3 2 2 4 2 2 4"
    ascent="825"
    descent="-175"
    x-height="542"
    cap-height="811"
    bbox="-146 -334 1486 1051"
    underline-thickness="50"
    underline-position="-100"
    stemh="206"
    stemv="258"
    unicode-range="U+0020-FEFC"
  />
<missing-glyph 
 />
    <glyph glyph-name="uni06440627" unicode="&#xfedf;&#xfe8e;" horiz-adv-x="739" arabic-form="isolated" 
d="M65 0l-10 80h276c61 0 106 15 139 41c32 26 53 68 53 131v633h154v-80h-74v-553c0 -75 -27 -144 -73 -185c-53 -47 -136 -67 -229 -67h-236zM217 134v563h80v-563h-80z" />
    <glyph glyph-name="uni06440627.fina" unicode="&#xfee0;&#xfe8e;" horiz-adv-x="747" arabic-form="final" 
d="M65 0l-10 80h276c61 0 106 15 139 41c32 26 53 68 53 131v633h154v-80h-74v-553c0 -30 -5 -59 -13 -85c31 -58 81 -87 177 -87v-80c-133 0 -178 57 -203 107c-10 -16 -21 -29 -34 -40c-53 -47 -136 -67 -229 -67h-236zM217 134v563h80v-563h-80z" />
    <glyph glyph-name="uni06440623" unicode="&#xfedf;&#xfe84;" horiz-adv-x="739" arabic-form="isolated" 
d="M65 0l-10 80h276c61 0 106 15 139 41c32 26 53 68 53 131v633h154v-80h-74v-553c0 -75 -27 -144 -73 -185c-53 -47 -136 -67 -229 -67h-236zM217 134v563h80v-563h-80zM160 759v33c0 81 39 121 113 121h41v-45h-34c-46 0 -62 -21 -62 -56h128v-53h-186z" />
    <glyph glyph-name="uni06440623.fina" unicode="&#xfee0;&#xfe84;" horiz-adv-x="747" arabic-form="final" 
d="M65 0l-10 80h276c61 0 106 15 139 41c32 26 53 68 53 131v633h154v-80h-74v-553c0 -30 -5 -59 -13 -85c31 -58 81 -87 177 -87v-80c-133 0 -178 57 -203 107c-10 -16 -21 -29 -34 -40c-53 -47 -136 -67 -229 -67h-236zM217 134v563h80v-563h-80zM161 759v33
c0 81 39 121 113 121h41v-45h-34c-46 0 -62 -21 -62 -56h128v-53h-186z" />
    <glyph glyph-name="uni06440625" unicode="&#xfedf;&#xfe88;" horiz-adv-x="739" arabic-form="isolated" 
d="M270 -260c-74 0 -113 40 -113 121v33h186v-53h-128c0 -35 16 -56 62 -56h34v-45h-41zM65 0l-10 80h276c61 0 106 15 139 41c32 26 53 68 53 131v633h154v-80h-74v-553c0 -75 -27 -144 -73 -185c-53 -47 -136 -67 -229 -67h-236zM217 134v563h80v-563h-80z" />
    <glyph glyph-name="uni06440625.fina" unicode="&#xfee0;&#xfe88;" horiz-adv-x="747" arabic-form="final" 
d="M65 0l-10 80h276c61 0 106 15 139 41c32 26 53 68 53 131v633h154v-80h-74v-553c0 -30 -5 -59 -13 -85c31 -58 81 -87 177 -87v-80c-133 0 -178 57 -203 107c-10 -16 -21 -29 -34 -40c-53 -47 -136 -67 -229 -67h-236zM217 134v563h80v-563h-80zM275 -260
c-74 0 -113 40 -113 121v33h186v-53h-128c0 -35 16 -56 62 -56h34v-45h-41z" />
    <glyph glyph-name="uni06440622" unicode="&#xfedf;&#xfe82;" horiz-adv-x="739" arabic-form="isolated" 
d="M65 0l-10 80h276c61 0 106 15 139 41c32 26 53 68 53 131v633h154v-80h-74v-553c0 -75 -27 -144 -73 -185c-53 -47 -136 -67 -229 -67h-236zM217 134v563h80v-563h-80zM133 759v53h243v-53h-243z" />
    <glyph glyph-name="uni06440622.fina" unicode="&#xfee0;&#xfe82;" horiz-adv-x="747" arabic-form="final" 
d="M65 0l-10 80h276c61 0 106 15 139 41c32 26 53 68 53 131v633h154v-80h-74v-553c0 -30 -5 -59 -13 -85c31 -58 81 -87 177 -87v-80c-133 0 -178 57 -203 107c-10 -16 -21 -29 -34 -40c-53 -47 -136 -67 -229 -67h-236zM217 134v563h80v-563h-80zM134 759v53h243v-53h-243
z" />
    <glyph glyph-name="uni06440671" unicode="&#xfedf;&#xfb51;" horiz-adv-x="729" 
d="M65 0l-10 80h276c61 0 106 15 139 41c32 26 53 68 53 131v633h154v-80h-74v-553c0 -75 -27 -144 -73 -185c-53 -47 -136 -67 -229 -67h-236zM217 134v563h80v-563h-80zM141 750v48h60c0 48 29 86 86 86c60 0 97 -38 97 -97v-37h-243zM285 844c-26 0 -44 -14 -44 -46h89
c0 24 -13 46 -45 46z" />
    <glyph glyph-name="uni06440671.fina" unicode="&#xfee0;&#xfb51;" horiz-adv-x="746" 
d="M65 0l-10 80h276c61 0 106 15 139 41c32 26 53 68 53 131v633h154v-80h-74v-553c0 -30 -5 -59 -13 -85c31 -58 81 -87 177 -87v-80c-133 0 -178 57 -203 107c-10 -16 -21 -29 -34 -40c-53 -47 -136 -67 -229 -67h-236zM217 134v563h80v-563h-80zM141 750v48h60
c0 48 29 86 86 86c60 0 97 -38 97 -97v-37h-243zM285 844c-26 0 -44 -14 -44 -46h89c0 24 -13 46 -45 46z" />
    <glyph glyph-name="uni0621" unicode="&#x621;" horiz-adv-x="543" arabic-form="isolated" 
d="M109 0v205c0 174 81 265 228 265h94v-80h-111c-77 0 -131 -63 -131 -163v-147h286v-80h-366z" />
    <glyph glyph-name="uni0627" unicode="&#x627;" horiz-adv-x="309" arabic-form="isolated" 
d="M140 0v811h80v-811h-80z" />
    <glyph glyph-name="uni0627.fina" unicode="&#x627;" horiz-adv-x="370" arabic-form="final" 
d="M140 0v811h80v-731h170v-80h-250z" />
    <glyph glyph-name="uni0623" unicode="&#x623;" horiz-adv-x="308" arabic-form="isolated" 
d="M144 0v690h80v-690h-80zM90 747v33c0 81 39 121 113 121h41v-45h-34c-46 0 -62 -21 -62 -56h128v-53h-186z" />
    <glyph glyph-name="uni0623.fina" unicode="&#x623;" horiz-adv-x="373" arabic-form="final" 
d="M90 746v33c0 81 39 121 113 121h41v-45h-34c-46 0 -62 -21 -62 -56h128v-53h-186zM143 0v690h80v-610h170v-80h-250z" />
    <glyph glyph-name="uni0625" unicode="&#x625;" horiz-adv-x="309" arabic-form="isolated" 
d="M208 -215c-74 0 -113 40 -113 121v33h186v-53h-128c0 -35 16 -56 62 -56h34v-45h-41zM109 0v811h80v-811h-80z" />
    <glyph glyph-name="uni0625.fina" unicode="&#x625;" horiz-adv-x="373" arabic-form="final" 
d="M208 -216c-74 0 -113 40 -113 121v33h186v-53h-128c0 -35 16 -56 62 -56h34v-45h-41zM143 0v811h80v-731h170v-80h-250z" />
    <glyph glyph-name="uni0622" unicode="&#x622;" horiz-adv-x="309" arabic-form="isolated" 
d="M144 0v690h80v-690h-80zM65 746v53h243v-53h-243z" />
    <glyph glyph-name="uni0622.fina" unicode="&#x622;" horiz-adv-x="372" arabic-form="final" 
d="M142 0v690h80v-610h170v-80h-250zM60 747v53h243v-53h-243z" />
    <glyph glyph-name="uni0671" unicode="&#x671;" horiz-adv-x="310" arabic-form="isolated" 
d="M148 0v690h80v-690h-80zM70 746v48h60c0 48 29 86 86 86c60 0 97 -38 97 -97v-37h-243zM214 840c-26 0 -44 -14 -44 -46h89c0 24 -13 46 -45 46z" />
    <glyph glyph-name="uni0671.fina" unicode="&#x671;" horiz-adv-x="370" arabic-form="final" 
d="M140 0v690h80v-610h170v-80h-250zM60 746v48h60c0 48 29 86 86 86c60 0 97 -38 97 -97v-37h-243zM204 840c-26 0 -44 -14 -44 -46h89c0 24 -13 46 -45 46z" />
    <glyph glyph-name="uni066E.init" unicode="&#x66e;" horiz-adv-x="268" 
d="M0 0v80h118v463h80v-543h-198z" />
    <glyph glyph-name="uni066E.medi" unicode="&#x66e;" horiz-adv-x="303" 
d="M0 0v80h118v463h80v-463h125v-80h-323z" />
    <glyph glyph-name="uni066E.fina" unicode="&#x66e;" horiz-adv-x="857" 
d="M361 0c-112 0 -174 17 -229 66c-49 44 -71 121 -71 181v202h80v-190c0 -65 19 -110 53 -137c37 -30 93 -42 153 -42h325v463h81v-463h124v-80h-516z" />
    <glyph glyph-name="uni0628" unicode="&#x628;" horiz-adv-x="822" arabic-form="isolated" 
d="M361 0c-112 0 -174 17 -229 66c-49 44 -71 121 -71 181v202h80v-190c0 -65 19 -110 53 -137c37 -30 93 -42 153 -42h325v463h81v-543h-392zM451 -209c-31 0 -57 21 -57 54c0 30 25 53 57 53s57 -23 57 -53c0 -33 -26 -54 -57 -54z" />
    <glyph glyph-name="uni0628.init" unicode="&#x628;" horiz-adv-x="268" arabic-form="initial" 
d="M158 -209c-31 0 -57 21 -57 54c0 30 25 53 57 53s57 -23 57 -53c0 -33 -26 -54 -57 -54zM0 0v80h118v463h80v-543h-198z" />
    <glyph glyph-name="uni0628.medi" unicode="&#x628;" horiz-adv-x="303" arabic-form="medial" 
d="M0 0v80h118v463h80v-463h125v-80h-323zM158 -209c-31 0 -57 21 -57 54c0 30 25 53 57 53s57 -23 57 -53c0 -33 -26 -54 -57 -54z" />
    <glyph glyph-name="uni0628.fina" unicode="&#x628;" horiz-adv-x="857" arabic-form="final" 
d="M361 0c-112 0 -174 17 -229 66c-49 44 -71 121 -71 181v202h80v-190c0 -65 19 -110 53 -137c37 -30 93 -42 153 -42h325v463h81v-463h124v-80h-516zM458 -209c-31 0 -57 21 -57 54c0 30 25 53 57 53s57 -23 57 -53c0 -33 -26 -54 -57 -54z" />
    <glyph glyph-name="uni067E" unicode="&#x67e;" horiz-adv-x="822" arabic-form="isolated" 
d="M361 0c-112 0 -174 17 -229 66c-49 44 -71 121 -71 181v202h80v-190c0 -65 19 -110 53 -137c37 -30 93 -42 153 -42h325v463h81v-543h-392zM372 -207c-30 0 -55 21 -55 52c0 30 24 52 55 52c30 0 54 -22 54 -52c0 -31 -25 -52 -54 -52zM467 -334c-27 0 -51 19 -51 49
c0 27 22 48 51 48s51 -21 51 -48c0 -30 -23 -49 -51 -49zM563 -207c-29 0 -54 21 -54 52c0 30 24 52 54 52c31 0 54 -22 54 -52c0 -31 -24 -52 -54 -52z" />
    <glyph glyph-name="uni067E.init" unicode="&#x67e;" horiz-adv-x="369" arabic-form="initial" 
d="M79 -207c-30 0 -55 21 -55 52c0 30 24 52 55 52c30 0 54 -22 54 -52c0 -31 -25 -52 -54 -52zM174 -334c-27 0 -51 19 -51 49c0 27 22 48 51 48s51 -21 51 -48c0 -30 -23 -49 -51 -49zM270 -207c-29 0 -54 21 -54 52c0 30 24 52 54 52c31 0 54 -22 54 -52
c0 -31 -24 -52 -54 -52zM0 0v80h212v463h80v-543h-292z" />
    <glyph glyph-name="uni067E.medi" unicode="&#x67e;" horiz-adv-x="476" arabic-form="medial" 
d="M0 0v80h212v463h80v-463h203v-80h-495zM156 -207c-30 0 -55 21 -55 52c0 30 24 52 55 52c30 0 54 -22 54 -52c0 -31 -25 -52 -54 -52zM347 -207c-29 0 -54 21 -54 52c0 30 24 52 54 52c31 0 54 -22 54 -52c0 -31 -24 -52 -54 -52zM251 -334c-27 0 -51 19 -51 49
c0 27 22 48 51 48s51 -21 51 -48c0 -30 -23 -49 -51 -49z" />
    <glyph glyph-name="uni067E.fina" unicode="&#x67e;" horiz-adv-x="857" arabic-form="final" 
d="M361 0c-112 0 -174 17 -229 66c-49 44 -71 121 -71 181v202h80v-190c0 -65 19 -110 53 -137c37 -30 93 -42 153 -42h325v463h81v-463h124v-80h-516zM365 -207c-30 0 -55 21 -55 52c0 30 24 52 55 52c30 0 54 -22 54 -52c0 -31 -25 -52 -54 -52zM556 -207
c-29 0 -54 21 -54 52c0 30 24 52 54 52c31 0 54 -22 54 -52c0 -31 -24 -52 -54 -52zM460 -334c-27 0 -51 19 -51 49c0 27 22 48 51 48s51 -21 51 -48c0 -30 -23 -49 -51 -49z" />
    <glyph glyph-name="uni062A" unicode="&#x62a;" horiz-adv-x="822" arabic-form="isolated" 
d="M361 0c-112 0 -174 17 -229 66c-49 44 -71 121 -71 181v202h80v-190c0 -65 19 -110 53 -137c37 -30 93 -42 153 -42h325v463h81v-543h-392zM314 573c-30 0 -55 21 -55 53c0 29 24 52 55 52s55 -23 55 -52c0 -32 -25 -53 -55 -53zM507 573c-30 0 -55 21 -55 53
c0 29 24 52 55 52c32 0 56 -23 56 -52c0 -32 -25 -53 -56 -53z" />
    <glyph glyph-name="uni062A.init" unicode="&#x62a;" horiz-adv-x="414" arabic-form="initial" 
d="M0 0v80h212v463h80v-543h-292zM150 655c-30 0 -55 21 -55 53c0 29 24 52 55 52s55 -23 55 -52c0 -32 -25 -53 -55 -53zM343 655c-30 0 -55 21 -55 53c0 29 24 52 55 52c32 0 56 -23 56 -52c0 -32 -25 -53 -56 -53z" />
    <glyph glyph-name="uni062A.medi" unicode="&#x62a;" horiz-adv-x="476" arabic-form="medial" 
d="M0 0v80h212v463h80v-463h203v-80h-495zM342 655c-30 0 -55 21 -55 53c0 29 24 52 55 52c32 0 56 -23 56 -52c0 -32 -25 -53 -56 -53zM149 655c-30 0 -55 21 -55 53c0 29 24 52 55 52s55 -23 55 -52c0 -32 -25 -53 -55 -53z" />
    <glyph glyph-name="uni062A.fina" unicode="&#x62a;" horiz-adv-x="857" arabic-form="final" 
d="M361 0c-112 0 -174 17 -229 66c-49 44 -71 121 -71 181v202h80v-190c0 -65 19 -110 53 -137c37 -30 93 -42 153 -42h325v463h81v-463h124v-80h-516zM514 573c-30 0 -55 21 -55 53c0 29 24 52 55 52c32 0 56 -23 56 -52c0 -32 -25 -53 -56 -53zM321 573
c-30 0 -55 21 -55 53c0 29 24 52 55 52s55 -23 55 -52c0 -32 -25 -53 -55 -53z" />
    <glyph glyph-name="uni062B" unicode="&#x62b;" horiz-adv-x="822" arabic-form="isolated" 
d="M361 0c-112 0 -174 17 -229 66c-49 44 -71 121 -71 181v202h80v-190c0 -65 19 -110 53 -137c37 -30 93 -42 153 -42h325v463h81v-543h-392zM315 573c-30 0 -55 21 -55 52c0 29 24 52 55 52c30 0 54 -23 54 -52c0 -31 -25 -52 -54 -52zM410 717c-27 0 -51 19 -51 48
c0 28 22 49 51 49s51 -21 51 -49c0 -29 -23 -48 -51 -48zM506 573c-29 0 -54 21 -54 52c0 29 24 52 54 52c31 0 54 -23 54 -52c0 -31 -24 -52 -54 -52z" />
    <glyph glyph-name="uni062B.init" unicode="&#x62b;" horiz-adv-x="406" arabic-form="initial" 
d="M146 657c-30 0 -55 21 -55 52c0 29 24 52 55 52c30 0 54 -23 54 -52c0 -31 -25 -52 -54 -52zM241 801c-27 0 -51 19 -51 48c0 28 22 49 51 49s51 -21 51 -49c0 -29 -23 -48 -51 -48zM337 657c-29 0 -54 21 -54 52c0 29 24 52 54 52c31 0 54 -23 54 -52
c0 -31 -24 -52 -54 -52zM0 0v80h212v463h80v-543h-292z" />
    <glyph glyph-name="uni062B.medi" unicode="&#x62b;" horiz-adv-x="476" arabic-form="medial" 
d="M0 0v80h212v463h80v-463h203v-80h-495zM147 657c-30 0 -55 21 -55 52c0 29 24 52 55 52c30 0 54 -23 54 -52c0 -31 -25 -52 -54 -52zM338 657c-29 0 -54 21 -54 52c0 29 24 52 54 52c31 0 54 -23 54 -52c0 -31 -24 -52 -54 -52zM242 801c-27 0 -51 19 -51 48
c0 28 22 49 51 49s51 -21 51 -49c0 -29 -23 -48 -51 -48z" />
    <glyph glyph-name="uni062B.fina" unicode="&#x62b;" horiz-adv-x="857" arabic-form="final" 
d="M361 0c-112 0 -174 17 -229 66c-49 44 -71 121 -71 181v202h80v-190c0 -65 19 -110 53 -137c37 -30 93 -42 153 -42h325v463h81v-463h124v-80h-516zM324 575c-30 0 -55 21 -55 52c0 29 24 52 55 52c30 0 54 -23 54 -52c0 -31 -25 -52 -54 -52zM515 575
c-29 0 -54 21 -54 52c0 29 24 52 54 52c31 0 54 -23 54 -52c0 -31 -24 -52 -54 -52zM419 719c-27 0 -51 19 -51 48c0 28 22 49 51 49s51 -21 51 -49c0 -29 -23 -48 -51 -48z" />
    <glyph glyph-name="uni0679" unicode="&#x679;" horiz-adv-x="797" arabic-form="isolated" 
d="M361 0c-112 0 -174 17 -229 66c-49 44 -71 121 -71 181v202h80v-190c0 -65 19 -110 53 -137c37 -30 93 -42 153 -42h325v463h81v-543h-392zM371 740v-56h47c60 0 97 -38 97 -97v-37h-243v48h48v142h51zM421 644h-50v-46h90c0 27 -17 46 -40 46z" />
    <glyph glyph-name="uni0679.init" unicode="&#x679;" horiz-adv-x="383" arabic-form="initial" 
d="M0 0v80h212v463h80v-543h-292zM224 841v-56h47c60 0 97 -38 97 -97v-37h-243v48h48v142h51zM274 745h-50v-46h90c0 27 -17 46 -40 46z" />
    <glyph glyph-name="uni0679.medi" unicode="&#x679;" horiz-adv-x="465" arabic-form="medial" 
d="M0 0v80h212v463h80v-463h208v-80h-500zM224 841v-56h47c60 0 97 -38 97 -97v-37h-243v48h48v142h51zM274 745h-50v-46h90c0 27 -17 46 -40 46z" />
    <glyph glyph-name="uni0679.fina" unicode="&#x679;" horiz-adv-x="836" arabic-form="final" 
d="M361 0c-112 0 -174 17 -229 66c-49 44 -71 121 -71 181v202h80v-190c0 -65 19 -110 53 -137c37 -30 93 -42 153 -42h325v463h81v-463h130v-80h-522zM371 740v-56h47c60 0 97 -38 97 -97v-37h-243v48h48v142h51zM421 644h-50v-46h90c0 27 -17 46 -40 46z" />
    <glyph glyph-name="uni0629" unicode="&#x629;" horiz-adv-x="590" arabic-form="isolated" 
d="M380 0c-176 0 -330 82 -330 271c0 155 129 272 330 272h46v50h80v-593h-126zM347 80h79v383h-79c-109 0 -217 -76 -217 -192c0 -121 97 -191 217 -191zM464 694c-30 0 -55 21 -55 53c0 29 24 52 55 52c32 0 56 -23 56 -52c0 -32 -25 -53 -56 -53zM271 694
c-30 0 -55 21 -55 53c0 29 24 52 55 52s55 -23 55 -52c0 -32 -25 -53 -55 -53z" />
    <glyph glyph-name="uni0629.fina" unicode="&#x629;" horiz-adv-x="612" arabic-form="final" 
d="M380 0c-176 0 -330 82 -330 271c0 155 129 272 330 272h46v50h80v-513h125v-80h-251zM347 80h79v383h-79c-109 0 -217 -76 -217 -192c0 -121 97 -191 217 -191zM464 694c-30 0 -55 21 -55 53c0 29 24 52 55 52c32 0 56 -23 56 -52c0 -32 -25 -53 -56 -53zM271 694
c-30 0 -55 21 -55 53c0 29 24 52 55 52s55 -23 55 -52c0 -32 -25 -53 -55 -53z" />
    <glyph glyph-name="uni0686" unicode="&#x686;" horiz-adv-x="553" arabic-form="isolated" 
d="M103 -220c-42 65 -70 127 -70 228c0 22 3 51 7 72h378c12 41 25 97 25 166c0 62 -9 134 -62 180c-32 27 -78 43 -136 43c-53 0 -109 -15 -154 -49l-36 70c65 38 123 59 207 59c67 0 129 -24 173 -63c53 -48 87 -120 87 -216c0 -106 -25 -214 -43 -270h-366v-18
c0 -61 16 -107 51 -168zM243 -164c-30 0 -55 21 -55 52c0 30 24 52 55 52c30 0 54 -22 54 -52c0 -31 -25 -52 -54 -52zM338 -291c-27 0 -51 19 -51 49c0 27 22 48 51 48s51 -21 51 -48c0 -30 -23 -49 -51 -49zM434 -164c-29 0 -54 21 -54 52c0 30 24 52 54 52
c31 0 54 -22 54 -52c0 -31 -24 -52 -54 -52z" />
    <glyph glyph-name="uni0686.init" unicode="&#x686;" horiz-adv-x="582" arabic-form="initial" 
d="M505 0h-505v80h444c12 41 25 97 25 166c0 62 -9 134 -62 180c-32 27 -78 43 -136 43c-53 0 -109 -15 -154 -49l-36 70c65 38 123 59 207 59c67 0 129 -24 173 -63c53 -48 87 -120 87 -216c0 -106 -25 -214 -43 -270zM173 -164c-30 0 -55 21 -55 52c0 30 24 52 55 52
c30 0 54 -22 54 -52c0 -31 -25 -52 -54 -52zM268 -291c-27 0 -51 19 -51 49c0 27 22 48 51 48s51 -21 51 -48c0 -30 -23 -49 -51 -49zM364 -164c-29 0 -54 21 -54 52c0 30 24 52 54 52c31 0 54 -22 54 -52c0 -31 -24 -52 -54 -52z" />
    <glyph glyph-name="uni0686.medi" unicode="&#x686;" horiz-adv-x="617" arabic-form="medial" 
d="M649 0h-649v80h444c12 41 25 97 25 166c0 62 -9 134 -62 180c-32 27 -78 43 -136 43c-53 0 -109 -15 -154 -49l-36 70c65 38 123 59 207 59c67 0 129 -24 173 -63c53 -48 87 -120 87 -216c0 -67 -10 -135 -22 -190h123v-80zM173 -164c-30 0 -55 21 -55 52
c0 30 24 52 55 52c30 0 54 -22 54 -52c0 -31 -25 -52 -54 -52zM364 -164c-29 0 -54 21 -54 52c0 30 24 52 54 52c31 0 54 -22 54 -52c0 -31 -24 -52 -54 -52zM268 -291c-27 0 -51 19 -51 49c0 27 22 48 51 48s51 -21 51 -48c0 -30 -23 -49 -51 -49z" />
    <glyph glyph-name="uni0686.fina" unicode="&#x686;" horiz-adv-x="588" arabic-form="final" 
d="M103 -220c-42 65 -70 127 -70 228c0 22 3 51 7 72h378c12 41 25 97 25 166c0 62 -9 134 -62 180c-32 27 -78 43 -136 43c-53 0 -109 -15 -154 -49l-36 70c65 38 123 59 207 59c67 0 129 -24 173 -63c53 -48 87 -120 87 -216c0 -67 -10 -135 -22 -190h124v-80h-511v-18
c0 -61 16 -107 51 -168zM243 -164c-30 0 -55 21 -55 52c0 30 24 52 55 52c30 0 54 -22 54 -52c0 -31 -25 -52 -54 -52zM434 -164c-29 0 -54 21 -54 52c0 30 24 52 54 52c31 0 54 -22 54 -52c0 -31 -24 -52 -54 -52zM338 -291c-27 0 -51 19 -51 49c0 27 22 48 51 48
s51 -21 51 -48c0 -30 -23 -49 -51 -49z" />
    <glyph glyph-name="uni062C" unicode="&#x62c;" horiz-adv-x="570" arabic-form="isolated" 
d="M103 -220c-42 65 -70 127 -70 228c0 22 3 51 7 72h378c12 41 25 97 25 166c0 62 -9 134 -62 180c-32 27 -78 43 -136 43c-53 0 -109 -15 -154 -49l-36 70c65 38 123 59 207 59c67 0 129 -24 173 -63c53 -48 87 -120 87 -216c0 -106 -25 -214 -43 -270h-366v-18
c0 -61 16 -107 51 -168zM314 -209c-31 0 -57 21 -57 54c0 30 25 53 57 53s57 -23 57 -53c0 -33 -26 -54 -57 -54z" />
    <glyph glyph-name="uni062C.init" unicode="&#x62c;" horiz-adv-x="595" arabic-form="initial" 
d="M505 0h-505v80h444c12 41 25 97 25 166c0 62 -9 134 -62 180c-32 27 -78 43 -136 43c-53 0 -109 -15 -154 -49l-36 70c65 38 123 59 207 59c67 0 129 -24 173 -63c53 -48 87 -120 87 -216c0 -106 -25 -214 -43 -270zM274 -209c-31 0 -57 21 -57 54c0 30 25 53 57 53
s57 -23 57 -53c0 -33 -26 -54 -57 -54z" />
    <glyph glyph-name="uni062C.medi" unicode="&#x62c;" horiz-adv-x="628" arabic-form="medial" 
d="M648 0h-648v80h444c12 41 25 97 25 166c0 62 -9 134 -62 180c-32 27 -78 43 -136 43c-53 0 -109 -15 -154 -49l-36 70c65 38 123 59 207 59c67 0 129 -24 173 -63c53 -48 87 -120 87 -216c0 -67 -10 -135 -22 -190h122v-80zM274 -209c-31 0 -57 21 -57 54
c0 30 25 53 57 53s57 -23 57 -53c0 -33 -26 -54 -57 -54z" />
    <glyph glyph-name="uni062C.fina" unicode="&#x62c;" horiz-adv-x="603" arabic-form="final" 
d="M103 -220c-42 65 -70 127 -70 228c0 22 3 51 7 72h378c12 41 25 97 25 166c0 62 -9 134 -62 180c-32 27 -78 43 -136 43c-53 0 -109 -15 -154 -49l-36 70c65 38 123 59 207 59c67 0 129 -24 173 -63c53 -48 87 -120 87 -216c0 -67 -10 -135 -22 -190h123v-80h-510v-18
c0 -61 16 -107 51 -168zM318 -209c-31 0 -57 21 -57 54c0 30 25 53 57 53s57 -23 57 -53c0 -33 -26 -54 -57 -54z" />
    <glyph glyph-name="uni062D" unicode="&#x62d;" horiz-adv-x="570" arabic-form="isolated" 
d="M103 -220c-42 65 -70 127 -70 228c0 22 3 51 7 72h378c12 41 25 97 25 166c0 62 -9 134 -62 180c-32 27 -78 43 -136 43c-53 0 -109 -15 -154 -49l-36 70c65 38 123 59 207 59c67 0 129 -24 173 -63c53 -48 87 -120 87 -216c0 -106 -25 -214 -43 -270h-366v-18
c0 -61 16 -107 51 -168z" />
    <glyph glyph-name="uni062D.init" unicode="&#x62d;" horiz-adv-x="595" arabic-form="initial" 
d="M505 0h-505v80h444c12 41 25 97 25 166c0 62 -9 134 -62 180c-32 27 -78 43 -136 43c-53 0 -109 -15 -154 -49l-36 70c65 38 123 59 207 59c67 0 129 -24 173 -63c53 -48 87 -120 87 -216c0 -106 -25 -214 -43 -270z" />
    <glyph glyph-name="uni062D.medi" unicode="&#x62d;" horiz-adv-x="628" arabic-form="medial" 
d="M0 0v80h444c12 41 25 97 25 166c0 62 -9 134 -62 180c-32 27 -78 43 -136 43c-53 0 -109 -15 -154 -49l-36 70c65 38 123 59 207 59c67 0 129 -24 173 -63c53 -48 87 -120 87 -216c0 -67 -10 -135 -22 -190h122v-80h-648z" />
    <glyph glyph-name="uni062D.fina" unicode="&#x62d;" horiz-adv-x="603" arabic-form="final" 
d="M113 0v-18c0 -61 16 -107 51 -168l-61 -34c-42 65 -70 127 -70 228c0 22 3 51 7 72h378c12 41 25 97 25 166c0 62 -9 134 -62 180c-32 27 -78 43 -136 43c-53 0 -109 -15 -154 -49l-36 70c65 38 123 59 207 59c67 0 129 -24 173 -63c53 -48 87 -120 87 -216
c0 -67 -10 -135 -22 -190h123v-80h-510z" />
    <glyph glyph-name="uni062E" unicode="&#x62e;" horiz-adv-x="570" arabic-form="isolated" 
d="M249 653c-31 0 -57 21 -57 54c0 30 25 54 57 54s57 -24 57 -54c0 -33 -26 -54 -57 -54zM103 -220c-42 65 -70 127 -70 228c0 22 3 51 7 72h378c12 41 25 97 25 166c0 62 -9 134 -62 180c-32 27 -78 43 -136 43c-53 0 -109 -15 -154 -49l-36 70c65 38 123 59 207 59
c67 0 129 -24 173 -63c53 -48 87 -120 87 -216c0 -106 -25 -214 -43 -270h-366v-18c0 -61 16 -107 51 -168z" />
    <glyph glyph-name="uni062E.init" unicode="&#x62e;" horiz-adv-x="595" arabic-form="initial" 
d="M505 0h-505v80h444c12 41 25 97 25 166c0 62 -9 134 -62 180c-32 27 -78 43 -136 43c-53 0 -109 -15 -154 -49l-36 70c65 38 123 59 207 59c67 0 129 -24 173 -63c53 -48 87 -120 87 -216c0 -106 -25 -214 -43 -270zM269 662c-31 0 -57 21 -57 54c0 30 25 54 57 54
s57 -24 57 -54c0 -33 -26 -54 -57 -54z" />
    <glyph glyph-name="uni062E.medi" unicode="&#x62e;" horiz-adv-x="628" arabic-form="medial" 
d="M0 0v80h444c12 41 25 97 25 166c0 62 -9 134 -62 180c-32 27 -78 43 -136 43c-53 0 -109 -15 -154 -49l-36 70c65 38 123 59 207 59c67 0 129 -24 173 -63c53 -48 87 -120 87 -216c0 -67 -10 -135 -22 -190h122v-80h-648zM269 662c-31 0 -57 21 -57 54c0 30 25 54 57 54
s57 -24 57 -54c0 -33 -26 -54 -57 -54z" />
    <glyph glyph-name="uni062E.fina" unicode="&#x62e;" horiz-adv-x="603" arabic-form="final" 
d="M103 -220c-42 65 -70 127 -70 228c0 22 3 51 7 72h378c12 41 25 97 25 166c0 62 -9 134 -62 180c-32 27 -78 43 -136 43c-53 0 -109 -15 -154 -49l-36 70c65 38 123 59 207 59c67 0 129 -24 173 -63c53 -48 87 -120 87 -216c0 -67 -10 -135 -22 -190h123v-80h-510v-18
c0 -61 16 -107 51 -168zM249 653c-31 0 -57 21 -57 54c0 30 25 54 57 54s57 -24 57 -54c0 -33 -26 -54 -57 -54z" />
    <glyph glyph-name="uni062F" unicode="&#x62f;" horiz-adv-x="549" arabic-form="isolated" 
d="M35 0v80h375v232c0 46 -8 78 -30 106c-22 27 -60 45 -98 45h-70v80h59c75 0 126 -23 168 -70c34 -39 51 -96 51 -158v-315h-455z" />
    <glyph glyph-name="uni062F.fina" unicode="&#x62f;" horiz-adv-x="594" arabic-form="final" 
d="M35 0v80h375v232c0 46 -8 78 -30 106c-22 27 -60 45 -98 45h-70v80h59c75 0 126 -23 168 -70c34 -39 51 -96 51 -158v-235h124v-80h-579z" />
    <glyph glyph-name="uni0630" unicode="&#x630;" horiz-adv-x="549" arabic-form="isolated" 
d="M272 644c-31 0 -57 21 -57 54c0 30 25 54 57 54s57 -24 57 -54c0 -33 -26 -54 -57 -54zM35 0v80h375v232c0 46 -8 78 -30 106c-22 27 -60 45 -98 45h-70v80h59c75 0 126 -23 168 -70c34 -39 51 -96 51 -158v-315h-455z" />
    <glyph glyph-name="uni0630.fina" unicode="&#x630;" horiz-adv-x="594" arabic-form="final" 
d="M35 0v80h375v232c0 46 -8 78 -30 106c-22 27 -60 45 -98 45h-70v80h59c75 0 126 -23 168 -70c34 -39 51 -96 51 -158v-235h124v-80h-579zM272 644c-31 0 -57 21 -57 54c0 30 25 54 57 54s57 -24 57 -54c0 -33 -26 -54 -57 -54z" />
    <glyph glyph-name="uni0688" unicode="&#x688;" horiz-adv-x="533" arabic-form="isolated" 
d="M35 0v80h375v232c0 46 -8 78 -30 106c-22 27 -60 45 -98 45h-70v80h59c75 0 126 -23 168 -70c34 -39 51 -96 51 -158v-315h-455zM244 841v-56h47c60 0 97 -38 97 -97v-37h-243v48h48v142h51zM294 745h-50v-46h90c0 27 -17 46 -40 46z" />
    <glyph glyph-name="uni0688.fina" unicode="&#x688;" horiz-adv-x="582" arabic-form="final" 
d="M35 0v80h375v232c0 46 -8 78 -30 106c-22 27 -60 45 -98 45h-70v80h59c75 0 126 -23 168 -70c34 -39 51 -96 51 -158v-235h123v-80h-578zM244 841v-56h47c60 0 97 -38 97 -97v-37h-243v48h48v142h51zM294 745h-50v-46h90c0 27 -17 46 -40 46z" />
    <glyph glyph-name="uni0631" unicode="&#x631;" horiz-adv-x="320" arabic-form="isolated" 
d="M96 -220c-22 0 -43 3 -65 9l21 77c19 -5 27 -6 41 -6c61 0 76 32 76 123v560h80v-560c0 -125 -37 -203 -153 -203z" />
    <glyph glyph-name="uni0631.fina" unicode="&#x631;" horiz-adv-x="355" arabic-form="final" 
d="M96 -220c-22 0 -43 3 -65 9l21 77c19 -5 27 -6 41 -6c61 0 76 32 76 123v560h80v-463h126v-80h-126v-17c0 -125 -37 -203 -153 -203z" />
    <glyph glyph-name="uni0632" unicode="&#x632;" horiz-adv-x="336" arabic-form="isolated" 
d="M96 -220c-22 0 -43 3 -65 9l21 77c19 -5 27 -6 41 -6c61 0 76 32 76 123v560h80v-560c0 -125 -37 -203 -153 -203zM208 655c-31 0 -57 21 -57 54c0 30 25 54 57 54s57 -24 57 -54c0 -33 -26 -54 -57 -54z" />
    <glyph glyph-name="uni0632.fina" unicode="&#x632;" horiz-adv-x="355" arabic-form="final" 
d="M96 -220c-22 0 -43 3 -65 9l21 77c19 -5 27 -6 41 -6c61 0 76 32 76 123v560h80v-463h126v-80h-126v-17c0 -125 -37 -203 -153 -203zM209 655c-31 0 -57 21 -57 54c0 30 25 54 57 54s57 -24 57 -54c0 -33 -26 -54 -57 -54z" />
    <glyph glyph-name="uni0691" unicode="&#x691;" horiz-adv-x="313" arabic-form="isolated" 
d="M96 -220c-22 0 -43 3 -65 9l21 77c19 -5 27 -6 41 -6c61 0 76 32 76 123v560h80v-560c0 -125 -37 -203 -153 -203zM169 841v-56h47c60 0 97 -38 97 -97v-37h-243v48h48v142h51zM219 745h-50v-46h90c0 27 -17 46 -40 46z" />
    <glyph glyph-name="uni0691.fina" unicode="&#x691;" horiz-adv-x="350" arabic-form="final" 
d="M96 -220c-22 0 -43 3 -65 9l21 77c19 -5 27 -6 41 -6c61 0 76 32 76 123v560h80v-463h126v-80h-126v-17c0 -125 -37 -203 -153 -203zM169 841v-56h47c60 0 97 -38 97 -97v-37h-243v48h48v142h51zM219 745h-50v-46h90c0 27 -17 46 -40 46z" />
    <glyph glyph-name="uni0698" unicode="&#x698;" horiz-adv-x="342" arabic-form="isolated" 
d="M96 -220c-22 0 -43 3 -65 9l21 77c19 -5 27 -6 41 -6c61 0 76 32 76 123v560h80v-560c0 -125 -37 -203 -153 -203zM97 657c-30 0 -55 21 -55 52c0 29 24 52 55 52c30 0 54 -23 54 -52c0 -31 -25 -52 -54 -52zM192 801c-27 0 -51 19 -51 48c0 28 22 49 51 49
s51 -21 51 -49c0 -29 -23 -48 -51 -48zM288 657c-29 0 -54 21 -54 52c0 29 24 52 54 52c31 0 54 -23 54 -52c0 -31 -24 -52 -54 -52z" />
    <glyph glyph-name="uni0698.fina" unicode="&#x698;" horiz-adv-x="350" arabic-form="final" 
d="M96 -220c-22 0 -43 3 -65 9l21 77c19 -5 27 -6 41 -6c61 0 76 32 76 123v560h80v-463h126v-80h-126v-17c0 -125 -37 -203 -153 -203zM97 657c-30 0 -55 21 -55 52c0 29 24 52 55 52c30 0 54 -23 54 -52c0 -31 -25 -52 -54 -52zM288 657c-29 0 -54 21 -54 52
c0 29 24 52 54 52c31 0 54 -23 54 -52c0 -31 -24 -52 -54 -52zM192 801c-27 0 -51 19 -51 48c0 28 22 49 51 49s51 -21 51 -49c0 -29 -23 -48 -51 -48z" />
    <glyph glyph-name="uni0633" unicode="&#x633;" horiz-adv-x="1381" arabic-form="isolated" 
d="M1093 -10c-91 0 -160 39 -198 102c-37 -55 -100 -92 -177 -92h-156v-125h-190c-114 0 -176 17 -231 66c-49 44 -71 121 -71 181v348h80v-336c0 -65 19 -110 53 -137c37 -30 93 -42 153 -42h126v588h80v-463h156c71 0 135 38 135 136v277h80v-277v-6
c3 -78 66 -140 160 -140c99 0 149 61 149 152v378h80v-365c0 -168 -83 -245 -229 -245z" />
    <glyph glyph-name="uni0633.init" unicode="&#x633;" horiz-adv-x="1129" arabic-form="initial" 
d="M841 -10c-91 0 -160 39 -198 102c-37 -55 -100 -92 -177 -92h-466v80h231v413h80v-413h155c71 0 135 38 135 136v277h80v-277v-6c3 -78 66 -140 160 -140c99 0 149 61 149 152v378h80v-365c0 -168 -83 -245 -229 -245z" />
    <glyph glyph-name="uni0633.medi" unicode="&#x633;" horiz-adv-x="1216" arabic-form="medial" 
d="M0 0v80h231v413h80v-413h155c71 0 135 38 135 136v277h80v-277v-6c3 -78 66 -140 160 -140c99 0 149 61 149 152v378h80v-365c0 -28 -2 -53 -7 -75c31 -53 80 -80 173 -80v-80c-121 0 -169 46 -195 92c-36 -69 -105 -102 -200 -102c-91 0 -160 39 -198 102
c-37 -55 -100 -92 -177 -92h-466z" />
    <glyph glyph-name="uni0633.fina" unicode="&#x633;" horiz-adv-x="1464" arabic-form="final" 
d="M372 -125c-114 0 -176 17 -231 66c-49 44 -71 121 -71 181v348h80v-336c0 -65 19 -110 53 -137c37 -30 93 -42 153 -42h126v588h80v-463h156c71 0 135 38 135 136v277h80v-277v-6c3 -78 66 -140 160 -140c99 0 149 61 149 152v378h80v-365c0 -29 -2 -55 -7 -79
c29 -49 85 -76 171 -76v-80c-119 0 -167 45 -194 90c-37 -68 -105 -100 -199 -100c-91 0 -160 39 -198 102c-37 -55 -100 -92 -177 -92h-156v-125h-190z" />
    <glyph glyph-name="uni0634" unicode="&#x634;" horiz-adv-x="1381" arabic-form="isolated" 
d="M1093 -10c-91 0 -160 39 -198 102c-37 -55 -100 -92 -177 -92h-156v-125h-190c-114 0 -176 17 -231 66c-49 44 -71 121 -71 181v348h80v-336c0 -65 19 -110 53 -137c37 -30 93 -42 153 -42h126v588h80v-463h156c71 0 135 38 135 136v277h80v-277v-6
c3 -78 66 -140 160 -140c99 0 149 61 149 152v378h80v-365c0 -168 -83 -245 -229 -245zM798 657c-30 0 -55 21 -55 52c0 29 24 52 55 52c30 0 54 -23 54 -52c0 -31 -25 -52 -54 -52zM989 657c-29 0 -54 21 -54 52c0 29 24 52 54 52c31 0 54 -23 54 -52
c0 -31 -24 -52 -54 -52zM893 801c-27 0 -51 19 -51 48c0 28 22 49 51 49s51 -21 51 -49c0 -29 -23 -48 -51 -48z" />
    <glyph glyph-name="uni0634.init" unicode="&#x634;" horiz-adv-x="1129" arabic-form="initial" 
d="M841 -10c-91 0 -160 39 -198 102c-37 -55 -100 -92 -177 -92h-466v80h231v413h80v-413h155c71 0 135 38 135 136v277h80v-277v-6c3 -78 66 -140 160 -140c99 0 149 61 149 152v378h80v-365c0 -168 -83 -245 -229 -245zM544 657c-30 0 -55 21 -55 52c0 29 24 52 55 52
c30 0 54 -23 54 -52c0 -31 -25 -52 -54 -52zM735 657c-29 0 -54 21 -54 52c0 29 24 52 54 52c31 0 54 -23 54 -52c0 -31 -24 -52 -54 -52zM639 801c-27 0 -51 19 -51 48c0 28 22 49 51 49s51 -21 51 -49c0 -29 -23 -48 -51 -48z" />
    <glyph glyph-name="uni0634.medi" unicode="&#x634;" horiz-adv-x="1215" arabic-form="medial" 
d="M0 0v80h231v413h80v-413h155c71 0 135 38 135 136v277h80v-277v-6c3 -78 66 -140 160 -140c99 0 149 61 149 152v378h80v-365c0 -28 -3 -54 -7 -77c30 -51 86 -78 173 -78v-80c-121 0 -169 46 -195 92c-36 -70 -105 -102 -200 -102c-91 0 -160 39 -198 102
c-37 -55 -100 -92 -177 -92h-466zM542 657c-30 0 -55 21 -55 52c0 29 24 52 55 52c30 0 54 -23 54 -52c0 -31 -25 -52 -54 -52zM733 657c-29 0 -54 21 -54 52c0 29 24 52 54 52c31 0 54 -23 54 -52c0 -31 -24 -52 -54 -52zM637 801c-27 0 -51 19 -51 48c0 28 22 49 51 49
s51 -21 51 -49c0 -29 -23 -48 -51 -48z" />
    <glyph glyph-name="uni0634.fina" unicode="&#x634;" horiz-adv-x="1464" arabic-form="final" 
d="M372 -125c-114 0 -176 17 -231 66c-49 44 -71 121 -71 181v348h80v-336c0 -65 19 -110 53 -137c37 -30 93 -42 153 -42h126v588h80v-463h156c71 0 135 38 135 136v277h80v-277v-6c3 -78 66 -140 160 -140c99 0 149 61 149 152v378h80v-365c0 -29 -2 -55 -7 -79
c29 -49 85 -76 171 -76v-80c-119 0 -167 45 -194 90c-37 -68 -105 -100 -199 -100c-91 0 -160 39 -198 102c-37 -55 -100 -92 -177 -92h-156v-125h-190zM798 657c-30 0 -55 21 -55 52c0 29 24 52 55 52c30 0 54 -23 54 -52c0 -31 -25 -52 -54 -52zM989 657
c-29 0 -54 21 -54 52c0 29 24 52 54 52c31 0 54 -23 54 -52c0 -31 -24 -52 -54 -52zM893 801c-27 0 -51 19 -51 48c0 28 22 49 51 49s51 -21 51 -49c0 -29 -23 -48 -51 -48z" />
    <glyph glyph-name="uni0635" unicode="&#x635;" horiz-adv-x="1200" arabic-form="isolated" 
d="M372 -125c-114 0 -176 17 -231 66c-49 44 -71 121 -71 181v348h80v-336c0 -65 19 -110 53 -137c37 -30 93 -42 153 -42h126v588h80v-63h360c79 0 129 -21 170 -68c31 -35 49 -92 49 -159v-253h-579v-125h-190zM922 400h-360v-320h499v173c0 43 -8 77 -30 104
s-58 43 -109 43z" />
    <glyph glyph-name="uni0635.init" unicode="&#x635;" horiz-adv-x="821" arabic-form="initial" 
d="M0 0v80h111v463h80v-63h353c79 0 129 -21 170 -68c31 -35 49 -92 49 -159v-253h-763zM544 400h-353v-320h492v173c0 43 -8 77 -30 104s-58 43 -109 43z" />
    <glyph glyph-name="uni0635.medi" unicode="&#x635;" horiz-adv-x="866" arabic-form="medial" 
d="M0 0v80h111v463h80v-63h353c79 0 129 -21 170 -68c31 -35 49 -92 49 -159v-173h123v-80h-886zM544 400h-353v-320h492v173c0 43 -8 77 -30 104s-58 43 -109 43z" />
    <glyph glyph-name="uni0635.fina" unicode="&#x635;" horiz-adv-x="1245" arabic-form="final" 
d="M372 -125c-114 0 -176 17 -231 66c-49 44 -71 121 -71 181v348h80v-336c0 -65 19 -110 53 -137c37 -30 93 -42 153 -42h126v588h80v-63h360c79 0 129 -21 170 -68c31 -35 49 -92 49 -159v-173h124v-80h-703v-125h-190zM922 400h-360v-320h499v173c0 43 -8 77 -30 104
s-58 43 -109 43z" />
    <glyph glyph-name="uni0636" unicode="&#x636;" horiz-adv-x="1200" arabic-form="isolated" 
d="M372 -125c-114 0 -176 17 -231 66c-49 44 -71 121 -71 181v348h80v-336c0 -65 19 -110 53 -137c37 -30 93 -42 153 -42h126v588h80v-63h360c79 0 129 -21 170 -68c31 -35 49 -92 49 -159v-253h-579v-125h-190zM922 400h-360v-320h499v173c0 43 -8 77 -30 104
s-58 43 -109 43zM794 602c-31 0 -57 21 -57 54c0 30 25 54 57 54s57 -24 57 -54c0 -33 -26 -54 -57 -54z" />
    <glyph glyph-name="uni0636.init" unicode="&#x636;" horiz-adv-x="821" arabic-form="initial" 
d="M0 0v80h111v463h80v-63h353c79 0 129 -21 170 -68c31 -35 49 -92 49 -159v-253h-763zM544 400h-353v-320h492v173c0 43 -8 77 -30 104s-58 43 -109 43zM425 602c-31 0 -57 21 -57 54c0 30 25 54 57 54s57 -24 57 -54c0 -33 -26 -54 -57 -54z" />
    <glyph glyph-name="uni0636.medi" unicode="&#x636;" horiz-adv-x="866" arabic-form="medial" 
d="M0 0v80h111v463h80v-63h353c79 0 129 -21 170 -68c31 -35 49 -92 49 -159v-173h123v-80h-886zM544 400h-353v-320h492v173c0 43 -8 77 -30 104s-58 43 -109 43zM425 602c-31 0 -57 21 -57 54c0 30 25 54 57 54s57 -24 57 -54c0 -33 -26 -54 -57 -54z" />
    <glyph glyph-name="uni0636.fina" unicode="&#x636;" horiz-adv-x="1245" arabic-form="final" 
d="M372 -125c-114 0 -176 17 -231 66c-49 44 -71 121 -71 181v348h80v-336c0 -65 19 -110 53 -137c37 -30 93 -42 153 -42h126v588h80v-63h360c79 0 129 -21 170 -68c31 -35 49 -92 49 -159v-173h124v-80h-703v-125h-190zM922 400h-360v-320h499v173c0 43 -8 77 -30 104
s-58 43 -109 43zM793 602c-31 0 -57 21 -57 54c0 30 25 54 57 54s57 -24 57 -54c0 -33 -26 -54 -57 -54z" />
    <glyph glyph-name="uni0637" unicode="&#x637;" horiz-adv-x="850" arabic-form="isolated" 
d="M28 0v80h111v731h80v-331h353c79 0 129 -21 170 -68c31 -35 49 -92 49 -159v-253h-763zM572 400h-353v-320h492v173c0 43 -8 77 -30 104s-58 43 -109 43z" />
    <glyph glyph-name="uni0637.init" unicode="&#x637;" horiz-adv-x="821" arabic-form="initial" 
d="M0 0v80h111v731h80v-331h353c79 0 129 -21 170 -68c31 -35 49 -92 49 -159v-253h-763zM544 400h-353v-320h492v173c0 43 -8 77 -30 104s-58 43 -109 43z" />
    <glyph glyph-name="uni0637.medi" unicode="&#x637;" horiz-adv-x="866" arabic-form="medial" 
d="M0 0v80h111v731h80v-331h353c79 0 129 -21 170 -68c31 -35 49 -92 49 -159v-173h123v-80h-886zM544 400h-353v-320h492v173c0 43 -8 77 -30 104s-58 43 -109 43z" />
    <glyph glyph-name="uni0637.fina" unicode="&#x637;" horiz-adv-x="895" arabic-form="final" 
d="M28 0v80h111v731h80v-331h353c79 0 129 -21 170 -68c31 -35 49 -92 49 -159v-173h123v-80h-886zM572 400h-353v-320h492v173c0 43 -8 77 -30 104s-58 43 -109 43z" />
    <glyph glyph-name="uni0638" unicode="&#x638;" horiz-adv-x="850" arabic-form="isolated" 
d="M28 0v80h111v731h80v-331h353c79 0 129 -21 170 -68c31 -35 49 -92 49 -159v-253h-763zM572 400h-353v-320h492v173c0 43 -8 77 -30 104s-58 43 -109 43zM455 602c-31 0 -57 21 -57 54c0 30 25 54 57 54s57 -24 57 -54c0 -33 -26 -54 -57 -54z" />
    <glyph glyph-name="uni0638.init" unicode="&#x638;" horiz-adv-x="821" arabic-form="initial" 
d="M0 0v80h111v731h80v-331h353c79 0 129 -21 170 -68c31 -35 49 -92 49 -159v-253h-763zM544 400h-353v-320h492v173c0 43 -8 77 -30 104s-58 43 -109 43zM426 602c-31 0 -57 21 -57 54c0 30 25 54 57 54s57 -24 57 -54c0 -33 -26 -54 -57 -54z" />
    <glyph glyph-name="uni0638.medi" unicode="&#x638;" horiz-adv-x="866" arabic-form="medial" 
d="M0 0v80h111v731h80v-331h353c79 0 129 -21 170 -68c31 -35 49 -92 49 -159v-173h123v-80h-886zM544 400h-353v-320h492v173c0 43 -8 77 -30 104s-58 43 -109 43zM426 602c-31 0 -57 21 -57 54c0 30 25 54 57 54s57 -24 57 -54c0 -33 -26 -54 -57 -54z" />
    <glyph glyph-name="uni0638.fina" unicode="&#x638;" horiz-adv-x="895" arabic-form="final" 
d="M28 0v80h111v731h80v-331h353c79 0 129 -21 170 -68c31 -35 49 -92 49 -159v-173h123v-80h-886zM572 400h-353v-320h492v173c0 43 -8 77 -30 104s-58 43 -109 43zM455 602c-31 0 -57 21 -57 54c0 30 25 54 57 54s57 -24 57 -54c0 -33 -26 -54 -57 -54z" />
    <glyph glyph-name="uni0639" unicode="&#x639;" horiz-adv-x="607" arabic-form="isolated" 
d="M572 80v-80h-444v-18c0 -61 16 -107 51 -168l-61 -34c-42 65 -70 127 -70 228c0 22 3 51 7 72h88c-29 55 -60 128 -60 203c0 94 40 162 96 208c43 35 104 57 167 57c80 0 129 -18 201 -54l-35 -71c-50 26 -100 45 -159 45c-53 0 -96 -14 -125 -39
c-46 -38 -65 -88 -65 -141c0 -89 31 -157 67 -208h342z" />
    <glyph glyph-name="uni0639.init" unicode="&#x639;" horiz-adv-x="602" arabic-form="initial" 
d="M0 0v80h134c-29 55 -60 128 -60 203c0 94 40 162 96 208c43 35 104 57 167 57c80 0 129 -18 201 -54l-35 -71c-50 26 -100 45 -159 45c-53 0 -96 -14 -125 -39c-46 -38 -65 -88 -65 -141c0 -89 31 -157 67 -208h342v-80h-563z" />
    <glyph glyph-name="uni0639.medi" unicode="&#x639;" horiz-adv-x="692" arabic-form="medial" 
d="M0 0v80h192l-141 335c83 76 193 135 296 135c102 0 211 -60 296 -135l-140 -335h209v-80h-712zM347 462c-70 0 -135 -23 -196 -75l125 -307h143l125 307c-49 43 -126 75 -197 75z" />
    <glyph glyph-name="uni0639.fina" unicode="&#x639;" horiz-adv-x="710" arabic-form="final" 
d="M730 80v-80h-600v-18c0 -61 16 -107 51 -168l-61 -34c-42 65 -70 127 -70 228c0 22 3 51 7 72h153l-141 335c83 76 193 135 296 135c102 0 211 -60 296 -135l-140 -335h209zM365 462c-70 0 -135 -23 -196 -75l125 -307h143l125 307c-49 43 -126 75 -197 75z" />
    <glyph glyph-name="uni063A" unicode="&#x63a;" horiz-adv-x="607" arabic-form="isolated" 
d="M572 80v-80h-444v-18c0 -61 16 -107 51 -168l-61 -34c-42 65 -70 127 -70 228c0 22 3 51 7 72h88c-29 55 -60 128 -60 203c0 94 40 162 96 208c43 35 104 57 167 57c80 0 129 -18 201 -54l-35 -71c-50 26 -100 45 -159 45c-53 0 -96 -14 -125 -39
c-46 -38 -65 -88 -65 -141c0 -89 31 -157 67 -208h342zM337 662c-31 0 -57 21 -57 54c0 30 25 54 57 54s57 -24 57 -54c0 -33 -26 -54 -57 -54z" />
    <glyph glyph-name="uni063A.init" unicode="&#x63a;" horiz-adv-x="602" arabic-form="initial" 
d="M0 0v80h134c-29 55 -60 128 -60 203c0 94 40 162 96 208c43 35 104 57 167 57c80 0 129 -18 201 -54l-35 -71c-50 26 -100 45 -159 45c-53 0 -96 -14 -125 -39c-46 -38 -65 -88 -65 -141c0 -89 31 -157 67 -208h342v-80h-563zM324 662c-31 0 -57 21 -57 54
c0 30 25 54 57 54s57 -24 57 -54c0 -33 -26 -54 -57 -54z" />
    <glyph glyph-name="uni063A.medi" unicode="&#x63a;" horiz-adv-x="692" arabic-form="medial" 
d="M0 0v80h192l-141 335c83 76 193 135 296 135c102 0 211 -60 296 -135l-140 -335h209v-80h-712zM347 462c-70 0 -135 -23 -196 -75l125 -307h143l125 307c-49 43 -126 75 -197 75zM343 662c-31 0 -57 21 -57 54c0 30 25 54 57 54s57 -24 57 -54c0 -33 -26 -54 -57 -54z
" />
    <glyph glyph-name="uni063A.fina" unicode="&#x63a;" horiz-adv-x="710" arabic-form="final" 
d="M730 80v-80h-600v-18c0 -61 16 -107 51 -168l-61 -34c-42 65 -70 127 -70 228c0 22 3 51 7 72h153l-141 335c83 76 193 135 296 135c102 0 211 -60 296 -135l-140 -335h209zM365 462c-70 0 -135 -23 -196 -75l125 -307h143l125 307c-49 43 -126 75 -197 75zM367 662
c-31 0 -57 21 -57 54c0 30 25 54 57 54s57 -24 57 -54c0 -33 -26 -54 -57 -54z" />
    <glyph glyph-name="uni0641" unicode="&#x641;" horiz-adv-x="1017" arabic-form="isolated" 
d="M361 0c-112 0 -172 22 -228 70c-48 40 -72 117 -72 177v202h80v-190c0 -65 18 -108 54 -136c37 -30 92 -43 152 -43h234c-51 43 -90 105 -90 192c0 157 118 271 322 271h135v-543h-587zM571 272c0 -85 51 -152 122 -192h175v383h-88c-109 0 -209 -75 -209 -191zM784 655
c-31 0 -57 21 -57 54c0 30 25 54 57 54s57 -24 57 -54c0 -33 -26 -54 -57 -54z" />
    <glyph glyph-name="uni0641.init" unicode="&#x641;" horiz-adv-x="595" arabic-form="initial" 
d="M0 0v80h178c-51 43 -90 105 -90 192c0 157 118 271 322 271h135v-543h-545zM168 272c0 -85 51 -152 122 -192h175v383h-88c-109 0 -209 -75 -209 -191zM363 655c-31 0 -57 21 -57 54c0 30 25 54 57 54s57 -24 57 -54c0 -33 -26 -54 -57 -54z" />
    <glyph glyph-name="uni0641.medi" unicode="&#x641;" horiz-adv-x="631" arabic-form="medial" 
d="M0 0v80h178c-51 43 -90 105 -90 192c0 157 118 271 322 271h135v-463h106v-80h-651zM168 272c0 -85 51 -152 122 -192h175v383h-88c-109 0 -209 -75 -209 -191zM362 655c-31 0 -57 21 -57 54c0 30 25 54 57 54s57 -24 57 -54c0 -33 -26 -54 -57 -54z" />
    <glyph glyph-name="uni0641.fina" unicode="&#x641;" horiz-adv-x="1052" arabic-form="final" 
d="M361 0c-112 0 -172 22 -228 70c-48 40 -72 117 -72 177v202h80v-190c0 -65 18 -108 54 -136c37 -30 92 -43 152 -43h234c-51 43 -90 105 -90 192c0 157 118 271 322 271h135v-463h124v-80h-711zM571 272c0 -85 51 -152 122 -192h175v383h-88c-109 0 -209 -75 -209 -191z
M784 655c-31 0 -57 21 -57 54c0 30 25 54 57 54s57 -24 57 -54c0 -33 -26 -54 -57 -54z" />
    <glyph glyph-name="uni06A4" unicode="&#x6a4;" horiz-adv-x="1017" arabic-form="isolated" 
d="M361 0c-112 0 -172 22 -228 70c-48 40 -72 117 -72 177v202h80v-190c0 -65 18 -108 54 -136c37 -30 92 -43 152 -43h234c-51 43 -90 105 -90 192c0 157 118 271 322 271h135v-543h-587zM571 272c0 -85 51 -152 122 -192h175v383h-88c-109 0 -209 -75 -209 -191zM690 657
c-30 0 -55 21 -55 52c0 29 24 52 55 52c30 0 54 -23 54 -52c0 -31 -25 -52 -54 -52zM881 657c-29 0 -54 21 -54 52c0 29 24 52 54 52c31 0 54 -23 54 -52c0 -31 -24 -52 -54 -52zM785 801c-27 0 -51 19 -51 48c0 28 22 49 51 49s51 -21 51 -49c0 -29 -23 -48 -51 -48z" />
    <glyph glyph-name="uni06A4.init" unicode="&#x6a4;" horiz-adv-x="595" arabic-form="initial" 
d="M0 0v80h178c-51 43 -90 105 -90 192c0 157 118 271 322 271h135v-543h-545zM168 272c0 -85 51 -152 122 -192h175v383h-88c-109 0 -209 -75 -209 -191zM270 657c-30 0 -55 21 -55 52c0 29 24 52 55 52c30 0 54 -23 54 -52c0 -31 -25 -52 -54 -52zM461 657
c-29 0 -54 21 -54 52c0 29 24 52 54 52c31 0 54 -23 54 -52c0 -31 -24 -52 -54 -52zM365 801c-27 0 -51 19 -51 48c0 28 22 49 51 49s51 -21 51 -49c0 -29 -23 -48 -51 -48z" />
    <glyph glyph-name="uni06A4.medi" unicode="&#x6a4;" horiz-adv-x="630" arabic-form="medial" 
d="M0 0v80h178c-51 43 -90 105 -90 192c0 157 118 271 322 271h135v-463h105v-80h-650zM168 272c0 -85 51 -152 122 -192h175v383h-88c-109 0 -209 -75 -209 -191zM269 657c-30 0 -55 21 -55 52c0 29 24 52 55 52c30 0 54 -23 54 -52c0 -31 -25 -52 -54 -52zM460 657
c-29 0 -54 21 -54 52c0 29 24 52 54 52c31 0 54 -23 54 -52c0 -31 -24 -52 -54 -52zM364 801c-27 0 -51 19 -51 48c0 28 22 49 51 49s51 -21 51 -49c0 -29 -23 -48 -51 -48z" />
    <glyph glyph-name="uni06A4.fina" unicode="&#x6a4;" horiz-adv-x="1052" arabic-form="final" 
d="M361 0c-112 0 -172 22 -228 70c-48 40 -72 117 -72 177v202h80v-190c0 -65 18 -108 54 -136c37 -30 92 -43 152 -43h234c-51 43 -90 105 -90 192c0 157 118 271 322 271h135v-463h124v-80h-711zM571 272c0 -85 51 -152 122 -192h175v383h-88c-109 0 -209 -75 -209 -191z
M691 657c-30 0 -55 21 -55 52c0 29 24 52 55 52c30 0 54 -23 54 -52c0 -31 -25 -52 -54 -52zM882 657c-29 0 -54 21 -54 52c0 29 24 52 54 52c31 0 54 -23 54 -52c0 -31 -24 -52 -54 -52zM786 801c-27 0 -51 19 -51 48c0 28 22 49 51 49s51 -21 51 -49
c0 -29 -23 -48 -51 -48z" />
    <glyph glyph-name="uni06A1.init" unicode="&#x6a1;" horiz-adv-x="595" 
d="M0 0v80h178c-51 43 -90 105 -90 192c0 157 118 271 322 271h135v-543h-545zM168 272c0 -85 51 -152 122 -192h175v383h-88c-109 0 -209 -75 -209 -191z" />
    <glyph glyph-name="uni06A1.medi" unicode="&#x6a1;" horiz-adv-x="630" 
d="M0 0v80h178c-51 43 -90 105 -90 192c0 157 118 271 322 271h135v-463h105v-80h-650zM168 272c0 -85 51 -152 122 -192h175v383h-88c-109 0 -209 -75 -209 -191z" />
    <glyph glyph-name="uni06A1.fina" unicode="&#x6a1;" horiz-adv-x="1148" 
d="M419 0c-112 0 -172 22 -228 70c-48 40 -72 117 -72 177v202h80v-190c0 -65 18 -108 54 -136c37 -30 92 -43 152 -43h234c-51 43 -90 105 -90 192c0 157 118 271 322 271h135v-463h124v-80h-711zM629 272c0 -85 51 -152 122 -192h175v383h-88c-109 0 -209 -75 -209 -191z
" />
    <glyph glyph-name="uni066F.init" unicode="&#x66f;" horiz-adv-x="595" 
d="M0 0v80h178c-51 43 -90 105 -90 192c0 157 118 271 322 271h135v-543h-545zM168 272c0 -85 51 -152 122 -192h175v383h-88c-109 0 -209 -75 -209 -191z" />
    <glyph glyph-name="uni066F.medi" unicode="&#x66f;" horiz-adv-x="630" 
d="M0 0v80h178c-51 43 -90 105 -90 192c0 157 118 271 322 271h135v-463h105v-80h-650zM168 272c0 -85 51 -152 122 -192h175v383h-88c-109 0 -209 -75 -209 -191z" />
    <glyph glyph-name="uni066F.fina" unicode="&#x66f;" horiz-adv-x="868" 
d="M362 -220c-112 0 -174 17 -229 66c-49 44 -71 121 -71 181v241h80v-229c0 -65 19 -110 53 -137c37 -30 93 -42 153 -42h336v140h-48c-178 0 -331 79 -331 268c0 157 133 275 331 275h128v-463h124v-80h-124v-220h-402zM385 268c0 -121 98 -188 218 -188h81v382h-81
c-111 0 -218 -78 -218 -194z" />
    <glyph glyph-name="uni0642" unicode="&#x642;" horiz-adv-x="834" arabic-form="isolated" 
d="M362 -220c-112 0 -174 17 -229 66c-49 44 -71 121 -71 181v241h80v-229c0 -65 19 -110 53 -137c37 -30 93 -42 153 -42h336v140h-48c-178 0 -331 79 -331 268c0 157 133 275 331 275h128v-763h-402zM385 268c0 -121 98 -188 218 -188h81v382h-81
c-111 0 -218 -78 -218 -194zM695 655c-30 0 -55 21 -55 53c0 29 24 52 55 52c32 0 56 -23 56 -52c0 -32 -25 -53 -56 -53zM502 655c-30 0 -55 21 -55 53c0 29 24 52 55 52s55 -23 55 -52c0 -32 -25 -53 -55 -53z" />
    <glyph glyph-name="uni0642.init" unicode="&#x642;" horiz-adv-x="595" arabic-form="initial" 
d="M0 0v80h178c-51 43 -90 105 -90 192c0 157 118 271 322 271h135v-543h-545zM168 272c0 -85 51 -152 122 -192h175v383h-88c-109 0 -209 -75 -209 -191zM461 655c-30 0 -55 21 -55 53c0 29 24 52 55 52c32 0 56 -23 56 -52c0 -32 -25 -53 -56 -53zM268 655
c-30 0 -55 21 -55 53c0 29 24 52 55 52s55 -23 55 -52c0 -32 -25 -53 -55 -53z" />
    <glyph glyph-name="uni0642.medi" unicode="&#x642;" horiz-adv-x="630" arabic-form="medial" 
d="M0 0v80h178c-51 43 -90 105 -90 192c0 157 118 271 322 271h135v-463h105v-80h-650zM168 272c0 -85 51 -152 122 -192h175v383h-88c-109 0 -209 -75 -209 -191zM461 655c-30 0 -55 21 -55 53c0 29 24 52 55 52c32 0 56 -23 56 -52c0 -32 -25 -53 -56 -53zM268 655
c-30 0 -55 21 -55 53c0 29 24 52 55 52s55 -23 55 -52c0 -32 -25 -53 -55 -53z" />
    <glyph glyph-name="uni0642.fina" unicode="&#x642;" horiz-adv-x="868" arabic-form="final" 
d="M362 -220c-112 0 -174 17 -229 66c-49 44 -71 121 -71 181v241h80v-229c0 -65 19 -110 53 -137c37 -30 93 -42 153 -42h336v140h-48c-178 0 -331 79 -331 268c0 157 133 275 331 275h128v-463h124v-80h-124v-220h-402zM385 268c0 -121 98 -188 218 -188h81v382h-81
c-111 0 -218 -78 -218 -194zM698 655c-30 0 -55 21 -55 53c0 29 24 52 55 52c32 0 56 -23 56 -52c0 -32 -25 -53 -56 -53zM505 655c-30 0 -55 21 -55 53c0 29 24 52 55 52s55 -23 55 -52c0 -32 -25 -53 -55 -53z" />
    <glyph glyph-name="uni0643" unicode="&#x643;" horiz-adv-x="938" arabic-form="isolated" 
d="M420 0c-112 0 -174 17 -229 66c-49 44 -71 121 -71 181v202h80v-190c0 -65 19 -110 53 -137c37 -30 93 -42 153 -42h325v731h81v-811h-392zM377 323v73c0 86 39 121 113 121h61v-45h-59c-44 0 -57 -21 -57 -56v-40h148v-53h-206z" />
    <glyph glyph-name="uni0643.init" unicode="&#x643;" horiz-adv-x="775" arabic-form="initial" 
d="M0 0v80h634v180c0 43 -7 77 -29 104s-59 43 -110 43h-408c-20 22 -31 46 -36 81l171 323h84l-165 -324h354c79 0 128 -22 169 -69c34 -39 50 -97 50 -158v-260h-714z" />
    <glyph glyph-name="uni0643.medi" unicode="&#x643;" horiz-adv-x="818" arabic-form="medial" 
d="M0 0v80h634v180c0 43 -7 77 -29 104s-59 43 -110 43h-408c-20 22 -31 46 -36 81l171 323h84l-165 -324h354c79 0 128 -22 169 -69c34 -39 50 -97 50 -158v-180h124v-80h-838z" />
    <glyph glyph-name="uni0643.fina" unicode="&#x643;" horiz-adv-x="935" arabic-form="final" 
d="M420 0c-112 0 -174 17 -229 66c-49 44 -71 121 -71 181v202h80v-190c0 -65 19 -110 53 -137c37 -30 93 -42 153 -42h325v731h81v-731h176v-80h-568zM377 323v73c0 86 39 121 113 121h61v-45h-59c-44 0 -57 -21 -57 -56v-40h148v-53h-206z" />
    <glyph glyph-name="uni06A9" unicode="&#x6a9;" horiz-adv-x="991" arabic-form="isolated" 
d="M931 0h-571c-112 0 -174 21 -230 69c-48 40 -70 112 -70 178v202h80v-189c0 -67 20 -108 56 -136c37 -30 91 -44 151 -44h506v179c0 44 -8 76 -30 103s-60 45 -97 45h-311c-19 22 -31 46 -35 81l164 323h95l-167 -324h240c72 0 122 -19 164 -64c37 -38 55 -98 55 -162
v-261z" />
    <glyph glyph-name="uni06A9.init" unicode="&#x6a9;" horiz-adv-x="775" arabic-form="initial" 
d="M0 0v80h634v180c0 43 -7 77 -29 104s-59 43 -110 43h-408c-20 22 -31 46 -36 81l171 323h84l-165 -324h354c79 0 128 -22 169 -69c34 -39 50 -97 50 -158v-260h-714z" />
    <glyph glyph-name="uni06A9.medi" unicode="&#x6a9;" horiz-adv-x="818" arabic-form="medial" 
d="M0 0v80h634v180c0 43 -7 77 -29 104s-59 43 -110 43h-408c-20 22 -31 46 -36 81l171 323h84l-165 -324h354c79 0 128 -22 169 -69c34 -39 50 -97 50 -158v-180h124v-80h-838z" />
    <glyph glyph-name="uni06A9.fina" unicode="&#x6a9;" horiz-adv-x="1014" arabic-form="final" 
d="M1057 0h-697c-112 0 -174 21 -230 69c-48 40 -70 112 -70 178v202h80v-189c0 -67 20 -108 56 -136c37 -30 91 -44 151 -44h506v179c0 44 -8 76 -30 103s-60 45 -97 45h-311c-19 22 -31 46 -35 81l164 323h95l-167 -324h240c72 0 122 -19 164 -64c37 -38 55 -98 55 -162
v-181h126v-80z" />
    <glyph glyph-name="uni06AF" unicode="&#x6af;" horiz-adv-x="965" arabic-form="isolated" 
d="M469 812l-172 -342h-65l172 342h65zM931 0h-571c-112 0 -174 21 -230 69c-48 40 -70 112 -70 178v202h80v-189c0 -67 20 -108 56 -136c37 -30 91 -44 151 -44h506v179c0 44 -8 76 -30 103s-60 45 -97 45h-311c-19 22 -31 46 -35 81l164 323h95l-167 -324h240
c72 0 122 -19 164 -64c37 -38 55 -98 55 -162v-261z" />
    <glyph glyph-name="uni06AF.init" unicode="&#x6af;" horiz-adv-x="821" arabic-form="initial" 
d="M215 812l-172 -342h-65l172 342h65zM0 0v80h694v180c0 43 -7 77 -29 104s-59 43 -110 43h-408c-20 22 -31 46 -36 81l171 323h84l-165 -324h354c79 0 128 -22 169 -69c34 -39 50 -97 50 -158v-260h-774z" />
    <glyph glyph-name="uni06AF.medi" unicode="&#x6af;" horiz-adv-x="870" arabic-form="medial" 
d="M0 0v80h694v180c0 43 -7 77 -29 104s-59 43 -110 43h-408c-20 22 -31 46 -36 81l171 323h84l-165 -324h354c79 0 128 -22 169 -69c34 -39 50 -97 50 -158v-180h124v-80h-898zM215 812l-172 -342h-65l172 342h65z" />
    <glyph glyph-name="uni06AF.fina" unicode="&#x6af;" horiz-adv-x="1014" arabic-form="final" 
d="M1054 0h-694c-112 0 -174 21 -230 69c-48 40 -70 112 -70 178v202h80v-189c0 -67 20 -108 56 -136c37 -30 91 -44 151 -44h506v179c0 44 -8 76 -30 103s-60 45 -97 45h-311c-19 22 -31 46 -35 81l164 323h95l-167 -324h240c72 0 122 -19 164 -64c37 -38 55 -98 55 -162
v-181h123v-80zM469 812l-172 -342h-65l172 342h65z" />
    <glyph glyph-name="uni0644" unicode="&#x644;" horiz-adv-x="643" arabic-form="isolated" 
d="M554 -125h-190c-114 0 -176 17 -231 66c-49 44 -71 121 -71 181v348h80v-336c0 -65 19 -110 53 -137c37 -30 93 -42 153 -42h126v856h80v-936z" />
    <glyph glyph-name="uni0644.init" unicode="&#x644;" horiz-adv-x="320" arabic-form="initial" 
d="M0 0v80h151v731h80v-811h-231z" />
    <glyph glyph-name="uni0644.medi" unicode="&#x644;" horiz-adv-x="361" arabic-form="medial" 
d="M0 0v80h151v731h80v-731h150v-80h-381z" />
    <glyph glyph-name="uni0644.fina" unicode="&#x644;" horiz-adv-x="698" arabic-form="final" 
d="M554 -125h-190c-114 0 -176 17 -231 66c-49 44 -71 121 -71 181v348h80v-336c0 -65 19 -110 53 -137c37 -30 93 -42 153 -42h126v856h164v-80h-84v-651h164v-80h-164v-125z" />
    <glyph glyph-name="uni0645" unicode="&#x645;" horiz-adv-x="893" arabic-form="isolated" 
d="M111 -220h-80v139c0 106 22 174 66 224c43 48 102 73 172 73h7c16 145 134 257 283 257c166 0 292 -126 292 -292s-130 -289 -292 -289c-146 0 -261 107 -282 244h-4c-57 0 -97 -22 -125 -54c-30 -34 -37 -90 -37 -147v-155zM559 -27c120 0 212 88 212 209
c0 122 -90 211 -212 211c-119 0 -205 -96 -205 -211c0 -114 88 -209 205 -209z" />
    <glyph glyph-name="uni0645.init" unicode="&#x645;" horiz-adv-x="720" arabic-form="initial" 
d="M0 0v80h124c-15 36 -24 76 -24 118c0 162 125 292 285 292c166 0 292 -126 292 -292s-130 -289 -292 -289c-84 0 -157 35 -209 91h-176zM385 -10c120 0 212 88 212 209c0 122 -90 211 -212 211c-119 0 -205 -96 -205 -211c0 -114 88 -209 205 -209z" />
    <glyph glyph-name="uni0645.medi" unicode="&#x645;" horiz-adv-x="776" arabic-form="medial" 
d="M0 0v80h124c-15 36 -24 76 -24 118c0 162 125 292 285 292c166 0 292 -126 292 -292c0 -43 -9 -83 -25 -118h144v-80h-196c-53 -57 -130 -91 -215 -91c-84 0 -157 35 -209 91h-176zM385 -10c120 0 212 88 212 209c0 122 -90 211 -212 211c-119 0 -205 -96 -205 -211
c0 -114 88 -209 205 -209z" />
    <glyph glyph-name="uni0645.fina" unicode="&#x645;" horiz-adv-x="954" arabic-form="final" 
d="M111 -220h-80v139c0 106 22 174 66 224c43 48 102 73 172 73h7c16 145 134 257 283 257c166 0 292 -126 292 -292c0 -36 -7 -70 -18 -101h140v-80h-184c-54 -67 -137 -108 -230 -108c-146 0 -261 107 -282 244h-4c-57 0 -97 -22 -125 -54c-30 -34 -37 -90 -37 -147v-155z
M559 -27c120 0 212 88 212 209c0 122 -90 211 -212 211c-119 0 -205 -96 -205 -211c0 -114 88 -209 205 -209z" />
    <glyph glyph-name="uni06BA" unicode="&#x6ba;" horiz-adv-x="624" arabic-form="isolated" 
d="M364 -125c-114 0 -176 17 -231 66c-49 44 -71 121 -71 181v348h80v-336c0 -65 19 -110 53 -137c37 -30 93 -42 153 -42h126v515h80v-595h-190z" />
    <glyph glyph-name="uni06BA.fina" unicode="&#x6ba;" horiz-adv-x="659" arabic-form="final" 
d="M364 -125c-114 0 -176 17 -231 66c-49 44 -71 121 -71 181v348h80v-336c0 -65 19 -110 53 -137c37 -30 93 -42 153 -42h126v515h80v-390h124v-80h-124v-125h-190z" />
    <glyph glyph-name="uni0646" unicode="&#x646;" horiz-adv-x="624" arabic-form="isolated" 
d="M364 -125c-114 0 -176 17 -231 66c-49 44 -71 121 -71 181v348h80v-336c0 -65 19 -110 53 -137c37 -30 93 -42 153 -42h126v515h80v-595h-190zM313 593c-31 0 -57 21 -57 54c0 30 25 54 57 54s57 -24 57 -54c0 -33 -26 -54 -57 -54z" />
    <glyph glyph-name="uni0646.init" unicode="&#x646;" horiz-adv-x="268" arabic-form="initial" 
d="M155 655c-31 0 -57 21 -57 54c0 30 25 54 57 54s57 -24 57 -54c0 -33 -26 -54 -57 -54zM0 0v80h118v463h80v-543h-198z" />
    <glyph glyph-name="uni0646.medi" unicode="&#x646;" horiz-adv-x="303" arabic-form="medial" 
d="M0 0v80h118v463h80v-463h125v-80h-323zM154 655c-31 0 -57 21 -57 54c0 30 25 54 57 54s57 -24 57 -54c0 -33 -26 -54 -57 -54z" />
    <glyph glyph-name="uni0646.fina" unicode="&#x646;" horiz-adv-x="659" arabic-form="final" 
d="M364 -125c-114 0 -176 17 -231 66c-49 44 -71 121 -71 181v348h80v-336c0 -65 19 -110 53 -137c37 -30 93 -42 153 -42h126v515h80v-390h124v-80h-124v-125h-190zM314 593c-31 0 -57 21 -57 54c0 30 25 54 57 54s57 -24 57 -54c0 -33 -26 -54 -57 -54z" />
    <glyph glyph-name="uniFEE9" unicode="&#x647;" horiz-adv-x="577" arabic-form="isolated" 
d="M506 0h-126c-176 0 -330 82 -330 271c0 155 129 272 330 272h46v50h80v-593zM347 80h79v383h-79c-109 0 -217 -76 -217 -192c0 -121 97 -191 217 -191z" />
    <glyph glyph-name="uni0647.init" unicode="&#x647;" horiz-adv-x="796" arabic-form="initial" 
d="M0 0v80h132c-6 25 -14 68 -14 107c0 142 80 246 208 246c129 0 207 -103 207 -245c0 -39 -8 -83 -13 -108h126c9 43 15 95 15 136c0 84 -13 149 -46 212c-47 89 -144 138 -274 138c-76 0 -160 -37 -216 -68l-33 74c85 44 178 75 278 75c143 0 256 -79 309 -171
c44 -76 62 -164 62 -261c0 -77 -14 -150 -29 -215h-712zM198 189c0 -43 7 -85 12 -109h230c5 24 13 64 13 109c0 96 -44 164 -127 164c-82 0 -128 -67 -128 -164z" />
    <glyph glyph-name="uni0647.medi" unicode="&#x647;" horiz-adv-x="831" arabic-form="medial" 
d="M20 0v80h132c-6 25 -14 68 -14 107c0 142 80 246 208 246c129 0 207 -103 207 -245c0 -39 -8 -83 -13 -108h126c9 43 15 95 15 136c0 84 -13 149 -46 212c-47 89 -144 138 -274 138c-76 0 -160 -37 -216 -68l-33 74c85 44 178 75 278 75c143 0 256 -79 309 -171
c44 -76 62 -164 62 -261c0 -47 -5 -92 -13 -135h103v-80h-831zM218 189c0 -43 7 -85 12 -109h230c5 24 13 64 13 109c0 96 -44 164 -127 164c-82 0 -128 -67 -128 -164z" />
    <glyph glyph-name="uni0647.fina" unicode="&#x647;" horiz-adv-x="612" arabic-form="final" 
d="M380 0c-176 0 -330 82 -330 271c0 155 129 272 330 272h46v50h80v-513h125v-80h-251zM347 80h79v383h-79c-109 0 -217 -76 -217 -192c0 -121 97 -191 217 -191z" />
    <glyph glyph-name="uni06BE" unicode="&#x6be;" horiz-adv-x="851" arabic-form="isolated" 
d="M85 0v80h132c-6 25 -14 68 -14 107c0 142 80 246 208 246c129 0 207 -103 207 -245c0 -39 -8 -83 -13 -108h126c9 43 15 95 15 136c0 84 -13 149 -46 212c-47 89 -144 138 -274 138c-76 0 -160 -37 -216 -68l-33 74c85 44 178 75 278 75c143 0 256 -79 309 -171
c44 -76 62 -164 62 -261c0 -77 -14 -150 -29 -215h-712zM283 189c0 -43 7 -85 12 -109h230c5 24 13 64 13 109c0 96 -44 164 -127 164c-82 0 -128 -67 -128 -164z" />
    <glyph glyph-name="uni06BE.init" unicode="&#x6be;" horiz-adv-x="766" arabic-form="initial" 
d="M0 0v80h132c-6 25 -14 68 -14 107c0 142 80 246 208 246c129 0 207 -103 207 -245c0 -39 -8 -83 -13 -108h126c9 43 15 95 15 136c0 84 -13 149 -46 212c-47 89 -144 138 -274 138c-76 0 -160 -37 -216 -68l-33 74c85 44 178 75 278 75c143 0 256 -79 309 -171
c44 -76 62 -164 62 -261c0 -77 -14 -150 -29 -215h-712zM198 189c0 -43 7 -85 12 -109h230c5 24 13 64 13 109c0 96 -44 164 -127 164c-82 0 -128 -67 -128 -164z" />
    <glyph glyph-name="uni06BE.medi" unicode="&#x6be;" horiz-adv-x="804" arabic-form="medial" 
d="M0 0v80h132c-6 25 -14 68 -14 107c0 142 80 246 208 246c129 0 207 -103 207 -245c0 -39 -8 -83 -13 -108h126c9 43 15 95 15 136c0 84 -13 149 -46 212c-47 89 -144 138 -274 138c-76 0 -160 -37 -216 -68l-33 74c85 44 178 75 278 75c143 0 256 -79 309 -171
c44 -76 62 -164 62 -261c0 -47 -5 -92 -13 -135h113v-80h-841zM198 189c0 -43 7 -85 12 -109h230c5 24 13 64 13 109c0 96 -44 164 -127 164c-82 0 -128 -67 -128 -164z" />
    <glyph glyph-name="uni06BE.fina" unicode="&#x6be;" horiz-adv-x="889" arabic-form="final" 
d="M85 0v80h132c-6 25 -14 68 -14 107c0 142 80 246 208 246c129 0 207 -103 207 -245c0 -39 -8 -83 -13 -108h126c9 43 15 95 15 136c0 84 -13 149 -46 212c-47 89 -144 138 -274 138c-76 0 -160 -37 -216 -68l-33 74c85 44 178 75 278 75c143 0 256 -79 309 -171
c44 -76 62 -164 62 -261c0 -47 -5 -92 -13 -135h111v-80h-839zM283 189c0 -43 7 -85 12 -109h230c5 24 13 64 13 109c0 96 -44 164 -127 164c-82 0 -128 -67 -128 -164z" />
    <glyph glyph-name="uni06C0" unicode="&#x6c0;" horiz-adv-x="574" arabic-form="isolated" 
d="M506 0h-126c-176 0 -330 82 -330 271c0 155 129 272 330 272h46v50h80v-593zM347 80h79v383h-79c-109 0 -217 -76 -217 -192c0 -121 97 -191 217 -191zM311 648v73c0 86 39 121 113 121h61v-45h-59c-44 0 -57 -21 -57 -56v-40h148v-53h-206z" />
    <glyph glyph-name="uni06C0.fina" unicode="&#x6c0;" horiz-adv-x="599" arabic-form="final" 
d="M380 0c-176 0 -330 82 -330 271c0 155 129 272 330 272h46v50h80v-513h122v-80h-248zM347 80h79v383h-79c-109 0 -217 -76 -217 -192c0 -121 97 -191 217 -191zM314 648v73c0 86 39 121 113 121h61v-45h-59c-44 0 -57 -21 -57 -56v-40h148v-53h-206z" />
    <glyph glyph-name="uni06C1" unicode="&#x6c1;" horiz-adv-x="574" arabic-form="isolated" 
d="M506 0h-126c-176 0 -330 82 -330 271c0 155 129 272 330 272h46v50h80v-593zM347 80h79v383h-79c-109 0 -217 -76 -217 -192c0 -121 97 -191 217 -191z" />
    <glyph glyph-name="uni06C1.init" unicode="&#x6c1;" horiz-adv-x="264" arabic-form="initial" 
d="M122 -229l-57 9l51 175l83 -11zM0 0v80h118v463h80v-543h-198z" />
    <glyph glyph-name="uni06C1.medi" unicode="&#x6c1;" horiz-adv-x="685" arabic-form="medial" 
d="M575 -229l-57 9l51 175l83 -11zM460 -220h-150c-59 0 -118 15 -157 47c-44 36 -68 82 -68 146v27h-85v80h85v262h80v-355c0 -38 14 -80 41 -101c27 -22 62 -26 106 -26h68v220h325v-80h-245v-220z" />
    <glyph glyph-name="uni06C1.fina" unicode="&#x6c1;" horiz-adv-x="555" arabic-form="final" 
d="M575 0h-192v463h-96c-45 0 -78 -8 -105 -30c-27 -21 -43 -60 -43 -97v-172h-80v160c0 76 21 128 71 170c38 32 96 49 155 49h178v-463h112v-80z" />
    <glyph glyph-name="uni06D5.fina" unicode="&#x6d5;" horiz-adv-x="599" 
d="M380 0c-176 0 -330 82 -330 271c0 155 129 272 330 272h46v50h80v-513h100v-80h-226zM347 80h79v383h-79c-109 0 -217 -76 -217 -192c0 -121 97 -191 217 -191z" />
    <glyph glyph-name="uni0648" unicode="&#x648;" horiz-adv-x="597" arabic-form="isolated" 
d="M304 -220c-48 0 -92 11 -153 34l25 77c50 -22 85 -31 134 -31c86 0 137 33 137 117v23h-48c-178 0 -331 79 -331 268c0 157 133 275 331 275h128v-558c0 -125 -67 -205 -223 -205zM148 268c0 -121 98 -188 218 -188h81v382h-81c-111 0 -218 -78 -218 -194z" />
    <glyph glyph-name="uni0648.fina" unicode="&#x648;" horiz-adv-x="612" arabic-form="final" 
d="M304 -220c-48 0 -92 11 -153 34l25 77c50 -22 85 -31 134 -31c86 0 137 33 137 117v23h-48c-178 0 -331 79 -331 268c0 157 133 275 331 275h128v-463h104v-80h-104v-15c0 -125 -67 -205 -223 -205zM148 268c0 -121 98 -188 218 -188h81v382h-81
c-111 0 -218 -78 -218 -194z" />
    <glyph glyph-name="uni0624" unicode="&#x624;" horiz-adv-x="577" arabic-form="isolated" 
d="M304 -220c-48 0 -92 11 -153 34l25 77c50 -22 85 -31 134 -31c86 0 137 33 137 117v23h-48c-178 0 -331 79 -331 268c0 157 133 275 331 275h128v-558c0 -125 -67 -205 -223 -205zM148 268c0 -121 98 -188 218 -188h81v382h-81c-111 0 -218 -78 -218 -194zM321 647v73
c0 86 39 121 113 121h61v-45h-59c-44 0 -57 -21 -57 -56v-40h148v-53h-206z" />
    <glyph glyph-name="uni0624.fina" unicode="&#x624;" horiz-adv-x="612" arabic-form="final" 
d="M304 -220c-48 0 -92 11 -153 34l25 77c50 -22 85 -31 134 -31c86 0 137 33 137 117v23h-48c-178 0 -331 79 -331 268c0 157 133 275 331 275h128v-463h104v-80h-104v-15c0 -125 -67 -205 -223 -205zM148 268c0 -121 98 -188 218 -188h81v382h-81
c-111 0 -218 -78 -218 -194zM321 647v73c0 86 39 121 113 121h61v-45h-59c-44 0 -57 -21 -57 -56v-40h148v-53h-206z" />
    <glyph glyph-name="uni0649" unicode="&#x649;" horiz-adv-x="1012" arabic-form="isolated" 
d="M364 -125c-114 0 -176 17 -231 66c-49 44 -71 121 -71 181v241h80v-229c0 -65 19 -110 53 -137c37 -30 93 -42 153 -42h190v369c0 76 21 130 70 172c39 32 90 47 156 47h178v-543h-80v463h-97c-44 0 -75 -8 -102 -30c-27 -21 -45 -56 -45 -96v-462h-254z" />
    <glyph glyph-name="uni0649.init" unicode="&#x649;" horiz-adv-x="268" arabic-form="initial" 
d="M0 0v80h118v463h80v-543h-198z" />
    <glyph glyph-name="uni0649.medi" unicode="&#x649;" horiz-adv-x="303" arabic-form="medial" 
d="M0 0v80h118v463h80v-463h125v-80h-323z" />
    <glyph glyph-name="uni0649.fina" unicode="&#x649;" horiz-adv-x="1047" arabic-form="final" 
d="M364 -125c-114 0 -176 17 -231 66c-49 44 -71 121 -71 181v241h80v-229c0 -65 19 -110 53 -137c37 -30 93 -42 153 -42h190v369c0 76 21 130 70 172c39 32 90 47 156 47h178v-463h125v-80h-205v463h-97c-44 0 -75 -8 -102 -30c-27 -21 -45 -56 -45 -96v-462h-254z" />
    <glyph glyph-name="uni064A" unicode="&#x64a;" horiz-adv-x="938" arabic-form="isolated" 
d="M464 -45v369c0 76 21 130 70 172c39 32 90 47 156 47h178v-543h-80v463h-97c-44 0 -75 -8 -102 -30c-27 -21 -45 -56 -45 -96v-462h-287c-100 0 -163 15 -237 54l36 71c68 -35 113 -45 175 -45h233zM281 64c-31 0 -57 21 -57 54c0 30 25 54 57 54s57 -24 57 -54
c0 -33 -26 -54 -57 -54zM281 254c-31 0 -57 21 -57 54c0 30 25 54 57 54s57 -24 57 -54c0 -33 -26 -54 -57 -54z" />
    <glyph glyph-name="uni064A.init" unicode="&#x64a;" horiz-adv-x="369" arabic-form="initial" 
d="M73 -209c-30 0 -55 20 -55 52c0 30 24 53 55 53s55 -23 55 -53c0 -32 -25 -52 -55 -52zM266 -209c-30 0 -55 20 -55 52c0 30 24 53 55 53c32 0 56 -23 56 -53c0 -32 -25 -52 -56 -52zM0 0v80h212v463h80v-543h-292z" />
    <glyph glyph-name="uni064A.medi" unicode="&#x64a;" horiz-adv-x="476" arabic-form="medial" 
d="M0 0v80h212v463h80v-463h203v-80h-495zM341 -209c-30 0 -55 20 -55 52c0 30 24 53 55 53c32 0 56 -23 56 -53c0 -32 -25 -52 -56 -52zM148 -209c-30 0 -55 20 -55 52c0 30 24 53 55 53s55 -23 55 -53c0 -32 -25 -52 -55 -52z" />
    <glyph glyph-name="uni064A.fina" unicode="&#x64a;" horiz-adv-x="973" arabic-form="final" 
d="M788 0v463h-97c-44 0 -75 -8 -102 -30c-27 -21 -45 -56 -45 -96v-462h-287c-100 0 -163 15 -237 54l36 71c68 -35 113 -45 175 -45h233v369c0 76 21 130 70 172c39 32 90 47 156 47h178v-463h125v-80h-205zM281 254c-31 0 -57 21 -57 54c0 30 25 54 57 54s57 -24 57 -54
c0 -33 -26 -54 -57 -54zM281 64c-31 0 -57 21 -57 54c0 30 25 54 57 54s57 -24 57 -54c0 -33 -26 -54 -57 -54z" />
    <glyph glyph-name="uni06CC" unicode="&#x6cc;" horiz-adv-x="1044" arabic-form="isolated" 
d="M421 -125c-114 0 -176 17 -231 66c-49 44 -71 121 -71 181v241h80v-229c0 -65 19 -110 53 -137c37 -30 93 -42 153 -42h190v369c0 76 21 130 70 172c39 32 90 47 156 47h178v-543h-80v463h-97c-44 0 -75 -8 -102 -30c-27 -21 -45 -56 -45 -96v-462h-254z" />
    <glyph glyph-name="uni06CC.init" unicode="&#x6cc;" horiz-adv-x="369" arabic-form="initial" 
d="M73 -209c-30 0 -55 20 -55 52c0 30 24 53 55 53s55 -23 55 -53c0 -32 -25 -52 -55 -52zM266 -209c-30 0 -55 20 -55 52c0 30 24 53 55 53c32 0 56 -23 56 -53c0 -32 -25 -52 -56 -52zM0 0v80h212v463h80v-543h-292z" />
    <glyph glyph-name="uni06CC.medi" unicode="&#x6cc;" horiz-adv-x="476" arabic-form="medial" 
d="M0 0v80h212v463h80v-463h203v-80h-495zM341 -209c-30 0 -55 20 -55 52c0 30 24 53 55 53c32 0 56 -23 56 -53c0 -32 -25 -52 -56 -52zM148 -209c-30 0 -55 20 -55 52c0 30 24 53 55 53s55 -23 55 -53c0 -32 -25 -52 -55 -52z" />
    <glyph glyph-name="uni06CC.fina" unicode="&#x6cc;" horiz-adv-x="1083" arabic-form="final" 
d="M919 0v463h-97c-44 0 -75 -8 -102 -30c-27 -21 -45 -56 -45 -96v-462h-254c-114 0 -176 17 -231 66c-49 44 -71 121 -71 181v241h80v-229c0 -65 19 -110 53 -137c37 -30 93 -42 153 -42h190v369c0 76 21 130 70 172c39 32 90 47 156 47h178v-463h130v-80h-210z" />
    <glyph glyph-name="uni06D2" unicode="&#x6d2;" horiz-adv-x="938" arabic-form="isolated" 
d="M787 0h-744v225c0 61 17 119 51 158c41 47 93 69 168 69h44c31 0 49 12 49 45v46h80v-57c0 -79 -49 -114 -128 -114h-57c-38 0 -77 -17 -99 -45c-22 -27 -28 -61 -28 -107v-140h664v-80z" />
    <glyph glyph-name="uni06D2.fina" unicode="&#x6d2;" horiz-adv-x="703" arabic-form="final" 
d="M723 80v-80h-602v-11c0 -37 11 -70 31 -92c25 -28 60 -37 98 -37h308v-80h-300c-74 0 -128 22 -170 69c-34 38 -47 97 -47 158v73h682z" />
    <glyph glyph-name="uni06D3" unicode="&#x6d3;" horiz-adv-x="909" arabic-form="isolated" 
d="M787 0h-744v225c0 61 17 119 51 158c41 47 93 69 168 69h44c31 0 49 12 49 45v46h80v-57c0 -79 -49 -114 -128 -114h-57c-38 0 -77 -17 -99 -45c-22 -27 -28 -61 -28 -107v-140h664v-80zM111 597v73c0 86 39 121 113 121h61v-45h-59c-44 0 -57 -21 -57 -56v-40h148v-53
h-206z" />
    <glyph glyph-name="uni06D3.fina" unicode="&#x6d3;" horiz-adv-x="655" arabic-form="final" 
d="M723 80v-80h-602v-11c0 -37 11 -70 31 -92c25 -28 60 -37 98 -37h308v-80h-300c-74 0 -128 22 -170 69c-34 38 -47 97 -47 158v73h682zM28 143v73c0 86 39 121 113 121h61v-45h-59c-44 0 -57 -21 -57 -56v-40h148v-53h-206z" />
    <glyph glyph-name="uni0626" unicode="&#x626;" horiz-adv-x="1059" arabic-form="isolated" 
d="M50 456v73c0 86 39 121 113 121h61v-45h-59c-44 0 -57 -21 -57 -56v-40h148v-53h-206zM410 -125c-114 0 -176 17 -231 66c-49 44 -71 121 -71 181v241h80v-229c0 -65 19 -110 53 -137c37 -30 93 -42 153 -42h190v369c0 76 21 130 70 172c39 32 90 47 156 47h178v-543h-80
v463h-97c-44 0 -75 -8 -102 -30c-27 -21 -45 -56 -45 -96v-462h-254z" />
    <glyph glyph-name="uni0626.init" unicode="&#x626;" horiz-adv-x="276" arabic-form="initial" 
d="M55 647v73c0 86 39 121 113 121h61v-45h-59c-44 0 -57 -21 -57 -56v-40h148v-53h-206zM0 0v80h118v463h80v-543h-198z" />
    <glyph glyph-name="uni0626.medi" unicode="&#x626;" horiz-adv-x="303" arabic-form="medial" 
d="M0 0v80h118v463h80v-463h125v-80h-323zM52 647v73c0 86 39 121 113 121h61v-45h-59c-44 0 -57 -21 -57 -56v-40h148v-53h-206z" />
    <glyph glyph-name="uni0626.fina" unicode="&#x626;" horiz-adv-x="1094" arabic-form="final" 
d="M410 -125c-114 0 -176 17 -231 66c-49 44 -71 121 -71 181v241h80v-229c0 -65 19 -110 53 -137c37 -30 93 -42 153 -42h190v369c0 76 21 130 70 172c39 32 90 47 156 47h178v-463h125v-80h-205v463h-97c-44 0 -75 -8 -102 -30c-27 -21 -45 -56 -45 -96v-462h-254zM50 456
v73c0 86 39 121 113 121h61v-45h-59c-44 0 -57 -21 -57 -56v-40h148v-53h-206z" />
    <glyph glyph-name="uniFE70" unicode="&#xfe70;" arabic-form="isolated" 
d="M-16 731v35l224 32v-35zM-17 803v35l224 32v-35z" />
    <glyph glyph-name="uniFE72" unicode="&#xfe72;" arabic-form="isolated" 
d="M17 718l-38 98l36 14l26 -72l56 9c-4 10 -7 22 -7 33c0 46 24 83 79 83c40 0 67 -32 67 -75c0 -17 -1 -31 -6 -57zM124 806c0 -13 1 -23 5 -34l70 11c1 6 2 12 2 20c0 22 -12 43 -39 43c-20 0 -38 -15 -38 -40z" />
    <glyph glyph-name="uniFE74" unicode="&#xfe74;" arabic-form="isolated" 
d="M-16 -215v35l224 32v-35zM-17 -143v35l224 32v-35z" />
    <glyph glyph-name="uniFE76" unicode="&#xfe76;" arabic-form="isolated" 
d="M-11 701v38l224 32v-38z" />
    <glyph glyph-name="uniFE78" unicode="&#xfe78;" arabic-form="isolated" 
d="M-13 720l-4 33l83 13c-4 11 -7 23 -7 34c0 46 25 83 79 83c40 0 68 -32 68 -75c0 -17 -1 -31 -6 -57zM94 806c0 -13 1 -23 5 -34l69 11c1 6 2 12 2 20c0 22 -11 43 -38 43c-21 0 -38 -15 -38 -40z" />
    <glyph glyph-name="uniFE7A" unicode="&#xfe7a;" arabic-form="isolated" 
d="M-11 -220v38l224 32v-38z" />
    <glyph glyph-name="uniFE7C" unicode="&#xfe7c;" arabic-form="isolated" 
d="M42 704c-30 0 -59 16 -68 60l-9 52l37 7l10 -49c5 -26 18 -33 33 -33c22 0 37 19 37 47c0 14 -2 31 -5 48l38 6l10 -50c3 -17 15 -29 32 -29c22 0 35 11 35 34c0 18 -4 41 -12 63l38 9s11 -47 11 -67c0 -50 -28 -76 -76 -76c-20 0 -38 15 -45 30c-7 -27 -30 -52 -66 -52z
" />
    <glyph glyph-name="uniFE7E" unicode="&#xfe7e;" arabic-form="isolated" 
d="M64 708c-45 0 -74 25 -74 82c0 53 33 84 80 84c48 0 76 -33 76 -84s-35 -82 -82 -82zM67 741c20 0 43 9 43 48c0 36 -21 51 -43 51c-17 0 -41 -12 -41 -49c0 -42 20 -50 41 -50z" />
    <glyph glyph-name="uni0651064C" unicode="&#xfc5e;" arabic-form="isolated" 
d="M-108 168l-38 98l36 14l26 -72l56 9c-4 10 -7 22 -7 33c0 46 24 83 79 83c40 0 67 -32 67 -75c0 -17 -1 -31 -6 -57zM-40 0c-30 0 -59 16 -68 60l-9 52l37 7l10 -49c5 -26 18 -33 33 -33c22 0 37 19 37 47c0 14 -2 31 -5 48l38 6l10 -50c3 -17 15 -29 32 -29
c22 0 35 11 35 34c0 18 -4 41 -12 63l38 9s11 -47 11 -67c0 -50 -28 -76 -76 -76c-20 0 -38 15 -45 30c-7 -27 -30 -52 -66 -52zM-1 256c0 -13 1 -23 5 -34l70 11c1 6 2 12 2 20c0 22 -12 43 -39 43c-20 0 -38 -15 -38 -40z" />
    <glyph glyph-name="uni0651064D" unicode="&#xfc5f;" arabic-form="isolated" 
d="M-58 156c-30 0 -59 16 -68 60l-9 52l37 7l10 -49c5 -26 18 -33 33 -33c22 0 37 19 37 47c0 14 -2 31 -5 48l38 6l10 -50c3 -17 15 -29 32 -29c22 0 35 11 35 34c0 18 -4 41 -12 63l38 9s11 -47 11 -67c0 -50 -28 -76 -76 -76c-20 0 -38 15 -45 30c-7 -27 -30 -52 -66 -52
zM-89 0v35l224 32v-35zM-90 72v35l224 32v-35z" />
    <glyph glyph-name="uni0651064E" unicode="&#xfc60;" arabic-form="isolated" 
d="M-55 0c-30 0 -59 16 -68 60l-9 52l37 7l10 -49c5 -26 18 -33 33 -33c22 0 37 19 37 47c0 14 -2 31 -5 48l38 6l10 -50c3 -17 15 -29 32 -29c22 0 35 11 35 34c0 18 -4 41 -12 63l38 9s11 -47 11 -67c0 -50 -28 -76 -76 -76c-20 0 -38 15 -45 30c-7 -27 -30 -52 -66 -52z
M-128 196v38l224 32v-38z" />
    <glyph glyph-name="uni0651064F" unicode="&#xfc61;" arabic-form="isolated" 
d="M-119 178l-4 33l83 13c-4 11 -7 23 -7 34c0 46 25 83 79 83c40 0 68 -32 68 -75c0 -17 -1 -31 -6 -57zM-55 0c-30 0 -59 16 -68 60l-9 52l37 7l10 -49c5 -26 18 -33 33 -33c22 0 37 19 37 47c0 14 -2 31 -5 48l38 6l10 -50c3 -17 15 -29 32 -29c22 0 35 11 35 34
c0 18 -4 41 -12 63l38 9s11 -47 11 -67c0 -50 -28 -76 -76 -76c-20 0 -38 15 -45 30c-7 -27 -30 -52 -66 -52zM-12 264c0 -13 1 -23 5 -34l69 11c1 6 2 12 2 20c0 22 -11 43 -38 43c-21 0 -38 -15 -38 -40z" />
    <glyph glyph-name="uni06510650" unicode="&#xfc62;" arabic-form="isolated" 
d="M-57 91c-30 0 -59 16 -68 60l-9 52l37 7l10 -49c5 -26 18 -33 33 -33c22 0 37 19 37 47c0 14 -2 31 -5 48l38 6l10 -50c3 -17 15 -29 32 -29c22 0 35 11 35 34c0 18 -4 41 -12 63l38 9s11 -47 11 -67c0 -50 -28 -76 -76 -76c-20 0 -38 15 -45 30c-7 -27 -30 -52 -66 -52z
M-90 0v38l224 32v-38z" />
    <glyph glyph-name="uni06510670" unicode="&#xfc63;" arabic-form="isolated" 
d="M-55 0c-30 0 -59 16 -68 60l-9 52l37 7l10 -49c5 -26 18 -33 33 -33c22 0 37 19 37 47c0 14 -2 31 -5 48l38 6l10 -50c3 -17 15 -29 32 -29c22 0 35 11 35 34c0 18 -4 41 -12 63l38 9s11 -47 11 -67c0 -50 -28 -76 -76 -76c-20 0 -38 15 -45 30c-7 -27 -30 -52 -66 -52z
M-33 196v192h44v-186z" />
    <glyph glyph-name=".notdef" 
 />
    <glyph glyph-name=".null" horiz-adv-x="500" 
 />
    <glyph glyph-name="CR" horiz-adv-x="500" 
 />
    <glyph glyph-name="space" unicode=" " horiz-adv-x="320" 
 />
    <glyph glyph-name="space" unicode="&#xa0;" horiz-adv-x="320" 
 />
    <glyph glyph-name="uni0627.short" horiz-adv-x="308" 
d="M140 0v690h80v-690h-80z" />
    <glyph glyph-name="uni0627.shortfina" horiz-adv-x="370" 
d="M140 0v690h80v-610h170v-80h-250z" />
    <glyph glyph-name="uni066E" unicode="&#x66e;" horiz-adv-x="822" 
d="M361 0c-112 0 -174 17 -229 66c-49 44 -71 121 -71 181v202h80v-190c0 -65 19 -110 53 -137c37 -30 93 -42 153 -42h325v463h81v-543h-392z" />
    <glyph glyph-name="uni066E.initalt" horiz-adv-x="363" 
d="M0 0v80h212v463h80v-543h-292z" />
    <glyph glyph-name="uni066E.medialt" horiz-adv-x="476" 
d="M0 0v80h212v463h80v-463h203v-80h-495z" />
    <glyph glyph-name="uni06C3" unicode="&#x6c3;" horiz-adv-x="574" 
d="M380 0c-176 0 -330 82 -330 271c0 155 129 272 330 272h46v50h80v-593h-126zM347 80h79v383h-79c-109 0 -217 -76 -217 -192c0 -121 97 -191 217 -191zM465 694c-30 0 -55 21 -55 53c0 29 24 52 55 52c32 0 56 -23 56 -52c0 -32 -25 -53 -56 -53zM272 694
c-30 0 -55 21 -55 53c0 29 24 52 55 52s55 -23 55 -52c0 -32 -25 -53 -55 -53z" />
    <glyph glyph-name="uni06C3.fina" horiz-adv-x="533" 
d="M575 0h-192v463h-96c-45 0 -78 -8 -105 -30c-27 -21 -43 -60 -43 -97v-172h-80v160c0 76 21 128 71 170c38 32 96 49 155 49h178v-463h112v-80zM220 646c-30 0 -55 21 -55 53c0 29 24 52 55 52s55 -23 55 -52c0 -32 -25 -53 -55 -53zM413 646c-30 0 -55 21 -55 53
c0 29 24 52 55 52c32 0 56 -23 56 -52c0 -32 -25 -53 -56 -53z" />
    <glyph glyph-name="uni06A1" unicode="&#x6a1;" horiz-adv-x="1133" 
d="M419 0c-112 0 -172 22 -228 70c-48 40 -72 117 -72 177v202h80v-190c0 -65 18 -108 54 -136c37 -30 92 -43 152 -43h234c-51 43 -90 105 -90 192c0 157 118 271 322 271h135v-543h-587zM629 272c0 -85 51 -152 122 -192h175v383h-88c-109 0 -209 -75 -209 -191z" />
    <glyph glyph-name="uni066F" unicode="&#x66f;" horiz-adv-x="833" 
d="M362 -220c-112 0 -174 17 -229 66c-49 44 -71 121 -71 181v241h80v-229c0 -65 19 -110 53 -137c37 -30 93 -42 153 -42h336v140h-48c-178 0 -331 79 -331 268c0 157 133 275 331 275h128v-763h-402zM385 268c0 -121 98 -188 218 -188h81v382h-81
c-111 0 -218 -78 -218 -194z" />
    <glyph glyph-name="uni06BA.init" horiz-adv-x="268" 
d="M155 655c-31 0 -57 21 -57 54c0 30 25 54 57 54s57 -24 57 -54c0 -33 -26 -54 -57 -54zM0 0v80h118v463h80v-543h-198z" />
    <glyph glyph-name="uni06BA.medi" horiz-adv-x="303" 
d="M0 0v80h118v463h80v-463h125v-80h-323zM154 655c-31 0 -57 21 -57 54c0 30 25 54 57 54s57 -24 57 -54c0 -33 -26 -54 -57 -54z" />
    <glyph glyph-name="uni0647" unicode="&#x647;" horiz-adv-x="851" 
d="M85 0v80h132c-6 25 -14 68 -14 107c0 142 80 246 208 246c129 0 207 -103 207 -245c0 -39 -8 -83 -13 -108h126c9 43 15 95 15 136c0 84 -13 149 -46 212c-47 89 -144 138 -274 138c-76 0 -160 -37 -216 -68l-33 74c85 44 178 75 278 75c143 0 256 -79 309 -171
c44 -76 62 -164 62 -261c0 -77 -14 -150 -29 -215h-712zM283 189c0 -43 7 -85 12 -109h230c5 24 13 64 13 109c0 96 -44 164 -127 164c-82 0 -128 -67 -128 -164z" />
    <glyph glyph-name="uni06C2" unicode="&#x6c2;" horiz-adv-x="574" 
d="M506 0h-126c-176 0 -330 82 -330 271c0 155 129 272 330 272h46v50h80v-593zM347 80h79v383h-79c-109 0 -217 -76 -217 -192c0 -121 97 -191 217 -191zM312 648v73c0 86 39 121 113 121h61v-45h-59c-44 0 -57 -21 -57 -56v-40h148v-53h-206z" />
    <glyph glyph-name="uni06C2.fina" horiz-adv-x="533" 
d="M575 0h-192v463h-96c-45 0 -78 -8 -105 -30c-27 -21 -43 -60 -43 -97v-172h-80v160c0 76 21 128 71 170c38 32 96 49 155 49h178v-463h112v-80zM274 648v73c0 86 39 121 113 121h61v-45h-59c-44 0 -57 -21 -57 -56v-40h148v-53h-206z" />
    <glyph glyph-name="uni06D5" unicode="&#x6d5;" horiz-adv-x="574" 
d="M506 0h-126c-176 0 -330 82 -330 271c0 155 129 272 330 272h46v50h80v-593zM347 80h79v383h-79c-109 0 -217 -76 -217 -192c0 -121 97 -191 217 -191z" />
    <glyph glyph-name="uni0640" unicode="&#x1a0;" horiz-adv-x="197" 
d="M0 0v80h217v-80h-217z" />
    <glyph glyph-name="uni0640" unicode="&#x640;" horiz-adv-x="197" 
d="M0 0v80h217v-80h-217z" />
    <glyph glyph-name="wasle" horiz-adv-x="121" 
d="M-20 0l31 80h130v-80h-161z" />
    <glyph glyph-name="wasle_alt" horiz-adv-x="199" 
d="M-20 0l31 80h208v-80h-239z" />
    <glyph glyph-name="uni0654" unicode="&#x654;" horiz-adv-x="335" 
d="M79 731v33c0 81 39 121 113 121h41v-45h-34c-46 0 -62 -21 -62 -56h128v-53h-186z" />
    <glyph glyph-name="uni0654.medi" horiz-adv-x="335" 
d="M69 613v73c0 86 39 121 113 121h61v-45h-59c-44 0 -57 -21 -57 -56v-40h148v-53h-206z" />
    <glyph glyph-name="uni0655" unicode="&#x655;" horiz-adv-x="335" 
d="M192 -197c-74 0 -113 40 -113 121v33h186v-53h-128c0 -35 16 -56 62 -56h34v-45h-41z" />
    <glyph glyph-name="uni0654064B" 
d="M-79 0v33c0 81 39 121 113 121h41v-45h-34c-46 0 -62 -21 -62 -56h128v-53h-186zM-111 196v35l224 32v-35zM-112 268v35l224 32v-35z" />
    <glyph glyph-name="uni0654064E" 
d="M-112 193v38l224 32v-38zM-82 0v33c0 81 39 121 113 121h41v-45h-34c-46 0 -62 -21 -62 -56h128v-53h-186z" />
    <glyph glyph-name="uni0654064C" 
d="M-90 186l-38 98l36 14l26 -72l56 9c-4 10 -7 22 -7 33c0 46 24 83 79 83c40 0 67 -32 67 -75c0 -17 -1 -31 -6 -57zM-63 0v33c0 81 39 121 113 121h41v-45h-34c-46 0 -62 -21 -62 -56h128v-53h-186zM17 274c0 -13 1 -23 5 -34l70 11c1 6 2 12 2 20c0 22 -12 43 -39 43
c-20 0 -38 -15 -38 -40z" />
    <glyph glyph-name="uni0654064F" 
d="M-108 186l-4 33l83 13c-4 11 -7 23 -7 34c0 46 25 83 79 83c40 0 68 -32 68 -75c0 -17 -1 -31 -6 -57zM-74 0v33c0 81 39 121 113 121h41v-45h-34c-46 0 -62 -21 -62 -56h128v-53h-186zM-1 272c0 -13 1 -23 5 -34l69 11c1 6 2 12 2 20c0 22 -11 43 -38 43
c-21 0 -38 -15 -38 -40z" />
    <glyph glyph-name="uni06540652" 
d="M-5 193c-45 0 -74 25 -74 82c0 53 33 84 80 84c48 0 76 -33 76 -84s-35 -82 -82 -82zM-2 226c20 0 43 9 43 48c0 36 -21 51 -43 51c-17 0 -41 -12 -41 -49c0 -42 20 -50 41 -50zM-93 0v33c0 81 39 121 113 121h41v-45h-34c-46 0 -62 -21 -62 -56h128v-53h-186z" />
    <glyph glyph-name="uni0654064D" 
d="M-111 -325v35l224 32v-35zM-112 -253v35l224 32v-35zM-101 -154v33c0 81 39 121 113 121h41v-45h-34c-46 0 -62 -21 -62 -56h128v-53h-186z" />
    <glyph glyph-name="uni06550650" 
d="M-101 -154v33c0 81 39 121 113 121h41v-45h-34c-46 0 -62 -21 -62 -56h128v-53h-186zM-112 -259v38l224 32v-38z" />
    <glyph glyph-name="uni0653" unicode="&#x653;" horiz-adv-x="335" 
d="M46 731v53h243v-53h-243z" />
    <glyph glyph-name="wasla" 
d="M-121 0v48h60c0 48 29 86 86 86c60 0 97 -38 97 -97v-37h-243zM23 94c-26 0 -44 -14 -44 -46h89c0 24 -13 46 -45 46z" />
    <glyph glyph-name="uni0615" unicode="&#x615;" 
d="M-22 190v-56h47c60 0 97 -38 97 -97v-37h-243v48h48v142h51zM28 94h-50v-46h90c0 27 -17 46 -40 46z" />
    <glyph glyph-name="uni0658" unicode="&#x658;" 
d="M27 0c-80 0 -131 39 -131 124v61h48v-59c0 -58 29 -76 84 -76h28v135h48v-185h-77zM-14 112l-5 139h42l-5 -136z" />
    <glyph glyph-name="uni0670" unicode="&#x670;" 
d="M-22 0v192h44v-186z" />
    <glyph glyph-name="uni0656" unicode="&#x656;" 
d="M-22 -192v192h44v-186z" />
    <glyph glyph-name="uni064B" unicode="&#x64b;" 
d="M-111 0v35l224 32v-35zM-112 72v35l224 32v-35z" />
    <glyph glyph-name="uni064C" unicode="&#x64c;" 
d="M-90 0l-38 98l36 14l26 -72l56 9c-4 10 -7 22 -7 33c0 46 24 83 79 83c40 0 67 -32 67 -75c0 -17 -1 -31 -6 -57zM17 88c0 -13 1 -23 5 -34l70 11c1 6 2 12 2 20c0 22 -12 43 -39 43c-20 0 -38 -15 -38 -40z" />
    <glyph glyph-name="uni064D" unicode="&#x64d;" 
d="M-111 -139v35l224 32v-35zM-112 -67v35l224 32v-35z" />
    <glyph glyph-name="uni064E" unicode="&#x64e;" 
d="M-111 0v38l224 32v-38z" />
    <glyph glyph-name="uni064F" unicode="&#x64f;" 
d="M-107 0l-4 33l83 13c-4 11 -7 23 -7 34c0 46 25 83 79 83c40 0 68 -32 68 -75c0 -17 -1 -31 -6 -57zM0 86c0 -13 1 -23 5 -34l69 11c1 6 2 12 2 20c0 22 -11 43 -38 43c-21 0 -38 -15 -38 -40z" />
    <glyph glyph-name="uni0650" unicode="&#x650;" 
d="M-112 -70v38l224 32v-38z" />
    <glyph glyph-name="uni0651" unicode="&#x651;" 
d="M-55 0c-30 0 -59 16 -68 60l-9 52l37 7l10 -49c5 -26 18 -33 33 -33c22 0 37 19 37 47c0 14 -2 31 -5 48l38 6l10 -50c3 -17 15 -29 32 -29c22 0 35 11 35 34c0 18 -4 41 -12 63l38 9s11 -47 11 -67c0 -50 -28 -76 -76 -76c-20 0 -38 15 -45 30c-7 -27 -30 -52 -66 -52z
" />
    <glyph glyph-name="uni0652" unicode="&#x652;" 
d="M-4 0c-45 0 -74 25 -74 82c0 53 33 84 80 84c48 0 76 -33 76 -84s-35 -82 -82 -82zM-1 33c20 0 43 9 43 48c0 36 -21 51 -43 51c-17 0 -41 -12 -41 -49c0 -42 20 -50 41 -50z" />
    <glyph glyph-name="uni0651064B" 
d="M-55 0c-30 0 -59 16 -68 60l-9 52l37 7l10 -49c5 -26 18 -33 33 -33c22 0 37 19 37 47c0 14 -2 31 -5 48l38 6l10 -50c3 -17 15 -29 32 -29c22 0 35 11 35 34c0 18 -4 41 -12 63l38 9s11 -47 11 -67c0 -50 -28 -76 -76 -76c-20 0 -38 15 -45 30c-7 -27 -30 -52 -66 -52z
M-126 173v35l224 32v-35zM-127 245v35l224 32v-35z" />
    <glyph glyph-name="uni0660" unicode="&#x660;" horiz-adv-x="478" 
d="M157 301l82 82l82 -82l-82 -83z" />
    <glyph glyph-name="uni0661" unicode="&#x661;" horiz-adv-x="418" 
d="M248 0h-80v659h80v-659z" />
    <glyph glyph-name="uni0662" unicode="&#x662;" horiz-adv-x="658" 
d="M228 659v-288c45 -18 88 -25 129 -25c90 0 131 45 131 138v175h80v-181c0 -138 -69 -212 -205 -212c-37 0 -92 7 -135 23v-289h-80v659h80z" />
    <glyph glyph-name="uni0663" unicode="&#x663;" horiz-adv-x="751" 
d="M513 278c-32 0 -70 8 -103 23c-25 -20 -63 -35 -104 -35c-24 0 -51 3 -78 13v-279h-80v659h80v-299c23 -10 52 -14 72 -14c63 0 82 28 82 116v197h81v-203c0 -37 -4 -66 -11 -90c19 -6 39 -8 60 -8c50 0 80 25 80 114v187h80v-197c0 -129 -55 -184 -159 -184z" />
    <glyph glyph-name="uni0664" unicode="&#x664;" horiz-adv-x="647" 
d="M560 0h-205c-138 0 -225 48 -225 166c0 60 26 107 68 142c-26 56 -42 108 -42 169c0 122 80 208 217 208c67 0 112 -16 180 -43l-26 -71c-76 28 -95 34 -153 34c-87 0 -138 -53 -138 -135c0 -46 9 -81 27 -121c35 17 76 30 120 41l104 25l16 -79l-117 -27
c-84 -20 -176 -61 -176 -136c0 -82 66 -93 156 -93h194v-80z" />
    <glyph glyph-name="uni0665" unicode="&#x665;" horiz-adv-x="685" 
d="M337 -10c-145 0 -238 73 -238 246c0 235 102 443 243 443c124 0 244 -179 244 -443c0 -188 -108 -246 -249 -246zM338 70c105 0 168 46 168 176c0 180 -63 353 -168 353c-89 0 -159 -176 -159 -353c0 -127 60 -176 159 -176z" />
    <glyph glyph-name="uni0666" unicode="&#x666;" horiz-adv-x="592" 
d="M443 0h-80v579h-290v80h370v-659z" />
    <glyph glyph-name="uni0667" unicode="&#x667;" horiz-adv-x="676" 
d="M391 0h-114l-216 659h89l183 -578h4l189 578h89z" />
    <glyph glyph-name="uni0668" unicode="&#x668;" horiz-adv-x="676" 
d="M277 659h114l224 -659h-89l-189 578h-4l-183 -578h-89z" />
    <glyph glyph-name="uni0669" unicode="&#x669;" horiz-adv-x="669" 
d="M520 0h-80v204c-21 -3 -45 -4 -65 -4c-157 0 -274 57 -274 221c0 157 112 238 310 238h109v-659zM354 280c32 0 58 1 86 4v295h-54c-126 0 -205 -51 -205 -158c0 -102 72 -141 173 -141z" />
    <glyph glyph-name="uni06F0" unicode="&#x6f0;" horiz-adv-x="468" 
d="M153 301l82 82l82 -82l-82 -83z" />
    <glyph glyph-name="uni06F1" unicode="&#x6f1;" horiz-adv-x="405" 
d="M242 0h-80v659h80v-659z" />
    <glyph glyph-name="uni06F2" unicode="&#x6f2;" horiz-adv-x="625" 
d="M222 659v-288c45 -18 88 -25 129 -25c90 0 131 45 131 138v175h80v-181c0 -138 -69 -212 -205 -212c-37 0 -92 7 -135 23v-289h-80v659h80z" />
    <glyph glyph-name="uni06F3" unicode="&#x6f3;" horiz-adv-x="715" 
d="M513 278c-32 0 -70 8 -103 23c-25 -20 -63 -35 -104 -35c-24 0 -51 3 -78 13v-279h-80v659h80v-299c23 -10 52 -14 72 -14c63 0 82 28 82 116v197h81v-203c0 -37 -4 -66 -11 -90c19 -6 39 -8 60 -8c50 0 80 25 80 114v187h80v-197c0 -129 -55 -184 -159 -184z" />
    <glyph glyph-name="uni06F4" unicode="&#x6f4;" horiz-adv-x="754" 
d="M228 659v-274c35 -13 80 -22 121 -25c-19 50 -27 98 -27 141c0 99 67 185 178 185c37 0 72 -11 122 -32l-26 -71c-58 21 -74 23 -96 23c-67 0 -99 -52 -99 -118c0 -36 5 -76 30 -129c67 4 118 21 194 54l31 -74c-82 -37 -160 -61 -251 -61c-45 0 -128 9 -177 26v-304h-80
v659h80z" />
    <glyph glyph-name="uni06F5" unicode="&#x6f5;" horiz-adv-x="670" 
d="M248 -10c-79 0 -150 65 -150 211c0 154 74 283 197 400c-30 24 -61 46 -86 62l45 66c92 -57 182 -133 243 -220c62 -89 106 -201 106 -305c0 -148 -70 -214 -155 -214c-47 0 -80 13 -99 54c-20 -40 -53 -54 -101 -54zM408 493c-16 18 -34 38 -54 57
c-105 -87 -177 -208 -177 -342c0 -83 33 -138 81 -138c56 0 70 47 70 90h44c0 -42 14 -90 66 -90c51 0 86 42 86 130c0 108 -46 209 -116 293z" />
    <glyph glyph-name="uni06F6" unicode="&#x6f6;" horiz-adv-x="647" 
d="M211 0h-80v151c0 64 26 112 72 148c-30 59 -47 113 -47 178c0 122 80 208 217 208c67 0 112 -16 180 -43l-26 -71c-76 28 -95 34 -153 34c-87 0 -138 -53 -138 -135c0 -51 11 -88 33 -132c30 14 63 25 101 34l117 29l19 -79l-117 -28c-90 -21 -178 -67 -178 -155v-139z
" />
    <glyph glyph-name="uni06F7" unicode="&#x6f7;" horiz-adv-x="630" 
d="M369 0h-114l-216 659h89l183 -578h4l189 578h89z" />
    <glyph glyph-name="uni06F8" unicode="&#x6f8;" horiz-adv-x="630" 
d="M260 659h114l224 -659h-89l-189 578h-4l-183 -578h-89z" />
    <glyph glyph-name="uni06F9" unicode="&#x6f9;" horiz-adv-x="633" 
d="M495 0h-80v204c-21 -3 -45 -4 -65 -4c-157 0 -274 57 -274 221c0 157 112 238 310 238h109v-659zM329 280c32 0 58 1 86 4v295h-54c-126 0 -205 -51 -205 -158c0 -102 72 -141 173 -141z" />
    <glyph glyph-name="uni06F4.urdu" horiz-adv-x="655" 
d="M229 0h-80v659h80l174 -168l177 168v-110l-177 -168l-174 163v-544z" />
    <glyph glyph-name="uni06F7.urdu" horiz-adv-x="525" 
d="M450 0h-375v81l252 578h85l-249 -579h287v-80z" />
    <glyph glyph-name="uni060C" unicode="&#x60c;" horiz-adv-x="318" 
d="M258 244l-81 -264h-87l104 264h64z" />
    <glyph glyph-name="uni061B" unicode="&#x61b;" horiz-adv-x="335" 
d="M151 -11c-32 0 -61 23 -61 56c0 32 29 57 61 57s60 -25 60 -57c0 -33 -28 -56 -60 -56zM275 615l-81 -264h-87l104 264h64z" />
    <glyph glyph-name="uni066B" unicode="&#x66b;" horiz-adv-x="318" 
d="M258 244l-81 -264h-87l104 264h64z" />
    <glyph glyph-name="uni066C" unicode="&#x66c;" horiz-adv-x="318" 
d="M258 734l-81 -264h-87l104 264h64z" />
    <glyph glyph-name="uni061F" unicode="&#x61f;" horiz-adv-x="555" 
d="M361 -10c-32 0 -61 23 -61 56s29 56 61 56s60 -23 60 -56s-28 -56 -60 -56zM350 773c72 0 109 -13 162 -35l13 -90c-50 26 -96 46 -167 46c-103 0 -186 -64 -186 -160c0 -119 110 -168 221 -168h9v-196h-84v126c-120 17 -233 91 -233 242c0 136 109 235 265 235z" />
    <glyph glyph-name="uni066A" unicode="&#x66a;" horiz-adv-x="597" 
d="M75 -125l364 1010h83l-362 -1010h-85zM183 581c-35 0 -67 26 -67 62c0 35 32 63 67 63s66 -28 66 -63c0 -36 -31 -62 -66 -62zM427 74c-35 0 -67 26 -67 62c0 35 32 63 67 63s66 -28 66 -63c0 -36 -31 -62 -66 -62z" />
    <glyph glyph-name="uni066D" unicode="&#x66d;" horiz-adv-x="585" 
d="M556 384l-174 -116l73 -195l-164 129l-163 -129l73 195l-174 116l209 -8l55 201l57 -201z" />
    <glyph glyph-name="uni274A" unicode="&#x274a;" horiz-adv-x="550" 
d="M247 545v-15c-27 -12 -70 -20 -118 -20c-44 0 -93 10 -119 20v16c28 14 72 21 119 21c48 0 93 -12 118 -22zM540 545v-15c-27 -12 -70 -20 -118 -20c-45 0 -94 10 -119 20v16c28 14 71 21 119 21s92 -12 118 -22zM268 510h15c12 -27 20 -70 20 -118
c0 -44 -10 -93 -20 -119h-16c-14 28 -21 72 -21 119c0 48 12 93 22 118zM268 803h15c12 -27 20 -70 20 -118c0 -45 -10 -94 -20 -119h-16c-14 28 -21 71 -21 119s12 92 22 118zM250 523l11 -10c-11 -27 -35 -65 -69 -98c-32 -31 -74 -59 -98 -70l-12 12c10 30 36 65 70 98
c33 34 74 58 98 68zM457 730l11 -11c-11 -27 -36 -63 -70 -97c-31 -32 -73 -59 -98 -70l-11 11c10 31 35 66 69 100c33 33 74 56 99 67zM290 513l10 11c27 -11 65 -35 98 -69c31 -32 59 -74 70 -98l-12 -12c-30 10 -65 36 -98 70c-34 33 -58 74 -68 98zM83 720l11 11
c27 -11 63 -36 97 -70c32 -31 59 -73 70 -98l-11 -11c-31 10 -66 35 -100 69c-33 33 -56 74 -67 99z" />
    <glyph glyph-name="uni25CC" unicode="&#x25cc;" horiz-adv-x="685" 
d="M311 448c0 17 14 31 32 31c17 0 31 -14 31 -31c0 -18 -14 -32 -31 -32c-18 0 -32 14 -32 32zM207 423c0 17 14 31 32 31c17 0 31 -14 31 -31c0 -18 -14 -32 -31 -32c-18 0 -32 14 -32 32zM418 423c0 17 14 31 31 31c18 0 31 -14 31 -31c0 -18 -13 -32 -31 -32
c-17 0 -31 14 -31 32zM498 341c0 17 14 31 31 31s31 -14 31 -31s-14 -31 -31 -31s-31 14 -31 31zM129 341c0 17 13 31 31 31c17 0 31 -14 31 -31s-14 -31 -31 -31c-18 0 -31 14 -31 31zM100 233c0 17 14 31 31 31c18 0 31 -14 31 -31c0 -18 -13 -31 -31 -31
c-17 0 -31 13 -31 31zM523 233c0 17 14 31 31 31s31 -14 31 -31c0 -18 -14 -31 -31 -31s-31 13 -31 31zM498 128c0 17 14 31 31 31s31 -14 31 -31s-14 -31 -31 -31s-31 14 -31 31zM129 128c0 17 13 31 31 31c17 0 31 -14 31 -31s-14 -31 -31 -31c-18 0 -31 14 -31 31z
M207 51c0 17 14 31 32 31c17 0 31 -14 31 -31c0 -18 -14 -31 -31 -31c-18 0 -32 13 -32 31zM418 51c0 17 14 31 31 31c18 0 31 -14 31 -31c0 -18 -13 -31 -31 -31c-17 0 -31 13 -31 31zM311 22c0 18 14 31 32 31c17 0 31 -13 31 -31c0 -17 -14 -31 -31 -31
c-18 0 -32 14 -32 31z" />
    <glyph glyph-name="uniFD3E" unicode="&#xfd3e;" horiz-adv-x="307" 
d="M261 -240c-121 0 -150 34 -150 149v202c0 70 -11 128 -81 132v66c70 4 81 62 81 132v201c0 114 29 149 150 149h36v-65h-19c-78 0 -86 -16 -86 -91v-200c0 -108 -31 -143 -84 -158v-2c53 -15 84 -50 84 -158v-201c0 -75 8 -91 86 -91h19v-65h-36z" />
    <glyph glyph-name="uniFD3F" unicode="&#xfd3f;" horiz-adv-x="307" 
d="M46 -240h-36v65h16c79 0 89 16 89 91v201c0 108 31 143 84 158v2c-53 15 -84 50 -84 158v200c0 75 -10 91 -89 91h-16v65h36c121 0 150 -35 150 -149v-201c0 -70 11 -128 81 -132v-66c-70 -4 -81 -62 -81 -132v-202c0 -115 -29 -149 -150 -149z" />
    <glyph glyph-name="zero" unicode="0" horiz-adv-x="798" 
d="M400 68c147 0 239 109 239 337s-92 342 -239 342c-149 0 -238 -114 -238 -342s89 -337 238 -337zM400 -11c-219 0 -325 166 -325 416s106 419 325 419c218 0 323 -169 323 -419s-105 -416 -323 -416z" />
    <glyph glyph-name="one" unicode="1" horiz-adv-x="395" 
d="M194 0v723l-164 -36v72l245 55v-814h-81z" />
    <glyph glyph-name="two" unicode="2" horiz-adv-x="676" 
d="M321 744c-87 0 -149 -28 -209 -76l-42 71c70 53 156 84 257 84c147 0 269 -76 269 -221c0 -172 -156 -320 -437 -526h457v-76h-576v76c287 212 469 362 469 514c0 107 -90 154 -188 154z" />
    <glyph glyph-name="three" unicode="3" horiz-adv-x="673" 
d="M293 -11c-100 0 -192 31 -263 84l42 71c60 -48 129 -76 215 -76c121 0 225 52 225 157c0 118 -96 159 -239 159h-17v76h13c153 0 223 50 223 144c0 88 -85 140 -197 140c-86 0 -150 -28 -211 -76l-41 71c70 54 158 84 258 84c156 0 277 -76 277 -207
c0 -102 -70 -171 -131 -191c74 -19 151 -85 151 -204c0 -153 -135 -232 -305 -232z" />
    <glyph glyph-name="four" unicode="4" horiz-adv-x="747" 
d="M473 0v214h-443v73l430 524h94v-521h153v-76h-153v-214h-81zM121 290h352v429z" />
    <glyph glyph-name="five" unicode="5" horiz-adv-x="735" 
d="M348 -11c-104 0 -198 31 -273 84l42 72c60 -48 139 -76 225 -76c118 0 232 62 232 187c0 134 -96 194 -225 194c-71 0 -156 -19 -231 -50l51 411h454v-76h-390l-29 -234c53 17 107 25 159 25c158 0 297 -77 297 -271c0 -171 -149 -266 -312 -266z" />
    <glyph glyph-name="six" unicode="6" horiz-adv-x="734" 
d="M367 -11c-169 0 -302 126 -302 293c0 84 30 149 97 242l209 287h101l-186 -251c33 11 66 16 98 16c156 0 285 -125 285 -294c0 -158 -127 -293 -302 -293zM367 68c131 0 216 99 216 217c0 116 -85 214 -216 214c-129 0 -216 -98 -216 -214c0 -118 85 -217 216 -217z" />
    <glyph glyph-name="seven" unicode="7" horiz-adv-x="648" 
d="M94 0l424 735h-483v76h573v-76l-417 -735h-97z" />
    <glyph glyph-name="eight" unicode="8" horiz-adv-x="754" 
d="M377 396c-131 0 -216 -61 -216 -166s92 -162 216 -162s216 57 216 162s-85 166 -216 166zM377 744c-109 0 -192 -49 -192 -138c0 -77 65 -141 192 -141s192 64 192 141c0 89 -83 138 -192 138zM377 823c153 0 277 -78 277 -207c0 -87 -53 -157 -117 -183
c60 -26 142 -89 142 -211c0 -156 -146 -233 -302 -233s-302 77 -302 233c0 122 82 185 142 211c-64 26 -117 96 -117 183c0 129 124 207 277 207z" />
    <glyph glyph-name="nine" unicode="9" horiz-adv-x="734" 
d="M367 823c169 0 302 -126 302 -293c0 -84 -30 -149 -97 -242l-209 -288h-101l186 252c-33 -11 -66 -16 -98 -16c-156 0 -285 125 -285 294c0 158 127 293 302 293zM367 744c-131 0 -216 -99 -216 -217c0 -116 85 -214 216 -214c129 0 216 98 216 214
c0 118 -85 217 -216 217z" />
    <glyph glyph-name="onequarter" unicode="&#xbc;" horiz-adv-x="924" 
d="M764 125h60v-52h-60v-73h-60v73h-245l304 405h1v-353zM704 125v190h-2l-142 -190h144zM181 707h-81l29 52h112v-452h-60v400zM648 767l44 -24l-439 -756l-44 24z" />
    <glyph glyph-name="onehalf" unicode="&#xbd;" horiz-adv-x="924" 
d="M181 707h-81l29 52h112v-452h-60v400zM627 52h197v-52h-317l229 250c20 22 28 46 28 76c0 50 -39 82 -92 82c-59 0 -93 -35 -93 -88h-60c2 79 65 140 151 140c87 0 154 -55 154 -134c0 -32 -9 -70 -32 -95zM603 767l44 -24l-439 -756l-44 24z" />
    <glyph glyph-name="twothirds" unicode="&#x2154;" horiz-adv-x="957" 
d="M220 402h177v-52h-297l229 250c20 22 28 46 28 76c0 50 -39 82 -92 82c-59 0 -93 -35 -93 -88h-60c2 79 65 140 151 140c87 0 154 -55 154 -134c0 -32 -9 -70 -32 -95zM677 767l44 -24l-439 -756l-44 24zM699 210v52c52 0 91 25 91 70c0 48 -42 74 -80 74
c-44 0 -70 -25 -75 -67h-60c8 72 55 119 136 119c79 0 139 -49 139 -124c0 -40 -23 -80 -63 -99c48 -19 70 -64 70 -111c0 -85 -63 -134 -152 -134c-79 0 -144 50 -145 125h60c0 -46 38 -73 87 -73c53 0 90 36 90 85c0 52 -39 85 -98 83z" />
    <glyph glyph-name="threequarters" unicode="&#xbe;" horiz-adv-x="964" 
d="M804 125h60v-52h-60v-73h-60v73h-245l304 405h1v-353zM744 125v190h-2l-142 -190h144zM726 767l44 -24l-439 -756l-44 24zM239 519v52c52 0 91 25 91 70c0 48 -42 74 -80 74c-44 0 -70 -25 -75 -67h-60c8 72 55 119 136 119c79 0 139 -49 139 -124c0 -40 -23 -80 -63 -99
c48 -19 70 -64 70 -111c0 -85 -63 -134 -152 -134c-79 0 -144 50 -145 125h60c0 -46 38 -73 87 -73c53 0 90 36 90 85c0 52 -39 85 -98 83z" />
    <glyph glyph-name="comma" unicode="," horiz-adv-x="264" 
d="M35 -166l81 264h87l-104 -264h-64z" />
    <glyph glyph-name="period" unicode="." horiz-adv-x="256" 
d="M128 -11c-32 0 -61 23 -61 56c0 32 29 57 61 57s60 -25 60 -57c0 -33 -28 -56 -60 -56z" />
    <glyph glyph-name="ellipsis" unicode="&#x2026;" horiz-adv-x="847" 
d="M128 -10c-32 0 -61 23 -61 55c0 33 29 57 61 57s60 -24 60 -57c0 -32 -28 -55 -60 -55zM423 -10c-32 0 -60 23 -60 55c0 33 28 57 60 57s61 -24 61 -57c0 -32 -29 -55 -61 -55zM719 -10c-32 0 -60 23 -60 55c0 33 28 57 60 57s60 -24 60 -57c0 -32 -28 -55 -60 -55z" />
    <glyph glyph-name="exclam" unicode="!" horiz-adv-x="311" 
d="M156 -11c-32 0 -61 23 -61 55c0 33 29 57 61 57s60 -24 60 -57c0 -32 -28 -55 -60 -55zM115 220v591h81v-591h-81z" />
    <glyph glyph-name="colon" unicode=":" horiz-adv-x="259" 
d="M130 -11c-32 0 -61 23 -61 56c0 32 29 57 61 57s60 -25 60 -57c0 -33 -28 -56 -60 -56zM130 429c-32 0 -61 23 -61 56c0 32 29 56 61 56s60 -24 60 -56c0 -33 -28 -56 -60 -56z" />
    <glyph glyph-name="hyphen" unicode="-" horiz-adv-x="379" 
d="M44 236v76h292v-76h-292z" />
    <glyph glyph-name="endash" unicode="&#x2013;" horiz-adv-x="587" 
d="M44 236v76h500v-76h-500z" />
    <glyph glyph-name="emdash" unicode="&#x2014;" horiz-adv-x="827" 
d="M44 236v76h740v-76h-740z" />
    <glyph glyph-name="underscore" unicode="_" horiz-adv-x="592" 
d="M44 -76v76h505v-76h-505z" />
    <glyph glyph-name="at" unicode="@" horiz-adv-x="1003" 
d="M734 181c-69 0 -110 37 -123 120c-33 -86 -101 -117 -171 -117c-98 0 -176 80 -176 201c0 165 113 263 223 263c67 0 118 -33 141 -91l11 72h72l-32 -246c-2 -12 -4 -32 -4 -48c0 -42 12 -86 61 -86c65 0 120 80 120 216c0 197 -147 302 -333 302
c-222 0 -372 -158 -372 -369c0 -195 135 -338 349 -338c67 0 146 18 211 47c9 -23 17 -43 27 -66c-78 -34 -166 -52 -238 -52c-249 0 -425 175 -425 412c0 245 195 431 450 431c211 0 403 -113 403 -364c0 -185 -103 -287 -194 -287zM496 577c-91 0 -153 -90 -153 -193
c0 -88 43 -130 112 -130c96 0 151 92 151 200c0 79 -42 123 -110 123z" />
    <glyph glyph-name="slash" unicode="/" horiz-adv-x="568" 
d="M-30 -150l545 961h83l-543 -961h-85z" />
    <glyph glyph-name="backslash" unicode="\" horiz-adv-x="568" 
d="M55 811l543 -961h-87l-541 961h85z" />
    <glyph glyph-name="bar" unicode="|" horiz-adv-x="275" 
d="M97 -220v1031h81v-1031h-81z" />
    <glyph glyph-name="parenleft" unicode="(" horiz-adv-x="266" 
d="M43 297c0 211 74 406 143 514h80c-76 -131 -142 -308 -142 -514s66 -387 142 -517h-80c-69 108 -143 306 -143 517z" />
    <glyph glyph-name="parenright" unicode=")" horiz-adv-x="266" 
d="M223 296c0 -211 -74 -408 -143 -516h-80c76 130 142 310 142 516s-66 384 -142 515h80c69 -108 143 -304 143 -515z" />
    <glyph glyph-name="bracketleft" unicode="[" horiz-adv-x="306" 
d="M97 -220v1031h192v-65h-111v-901h111v-65h-192z" />
    <glyph glyph-name="bracketright" unicode="]" horiz-adv-x="306" 
d="M209 811v-1031h-192v65h111v901h-111v65h192z" />
    <glyph glyph-name="braceleft" unicode="{" horiz-adv-x="287" 
d="M251 -220c-121 0 -150 34 -150 149v202c0 70 -11 128 -81 132v66c70 4 81 62 81 132v201c0 114 29 149 150 149h36v-65h-19c-78 0 -86 -16 -86 -91v-200c0 -108 -31 -143 -84 -158v-2c53 -15 84 -50 84 -158v-201c0 -75 8 -91 86 -91h19v-65h-36z" />
    <glyph glyph-name="braceright" unicode="}" horiz-adv-x="287" 
d="M36 -220h-36v65h16c79 0 89 16 89 91v201c0 108 31 143 84 158v2c-53 15 -84 50 -84 158v200c0 75 -10 91 -89 91h-16v65h36c121 0 150 -35 150 -149v-201c0 -70 11 -128 81 -132v-66c-70 -4 -81 -62 -81 -132v-202c0 -115 -29 -149 -150 -149z" />
    <glyph glyph-name="asciicircum" unicode="^" horiz-adv-x="540" 
d="M317 811l220 -426h-84l-183 355l-183 -355h-84l220 426h94z" />
    <glyph glyph-name="asciitilde" unicode="~" horiz-adv-x="626" 
d="M435 259c45 0 69 24 73 84h76c-7 -103 -53 -157 -141 -157c-92 0 -171 83 -252 83c-45 0 -70 -23 -73 -83h-76c6 102 54 157 140 157c102 0 180 -84 253 -84z" />
    <glyph glyph-name="degree" unicode="&#xb0;" horiz-adv-x="412" 
d="M35 651c0 96 75 172 170 172c97 0 172 -76 172 -172s-75 -172 -172 -172c-95 0 -170 76 -170 172zM97 651c0 -67 44 -117 108 -117c66 0 110 50 110 117s-44 117 -110 117c-64 0 -108 -50 -108 -117z" />
    <glyph glyph-name="section" unicode="&#xa7;" horiz-adv-x="714" 
d="M129 668c0 102 105 155 218 155c83 0 151 -19 204 -49l-32 -70c-45 28 -102 47 -171 47c-82 0 -140 -29 -140 -82c0 -44 31 -76 107 -116l166 -87c103 -53 173 -107 173 -198c0 -88 -64 -148 -139 -184c42 -36 66 -78 66 -131c0 -114 -102 -178 -232 -178
c-83 0 -151 19 -204 48l32 70c48 -29 103 -46 170 -46c83 0 153 32 153 103c0 48 -30 88 -133 142l-140 74c-103 54 -167 110 -167 202c0 79 66 139 137 173c-44 36 -68 76 -68 127zM406 154c19 -10 36 -20 53 -30c66 32 113 75 113 134c0 62 -40 101 -131 149l-169 87
l-16 8c-60 -27 -116 -68 -116 -128c0 -63 35 -100 121 -145z" />
    <glyph glyph-name="bullet" unicode="&#x2022;" horiz-adv-x="450" 
d="M226 189c-108 0 -189 85 -189 188c0 104 81 189 189 189s188 -85 188 -189c0 -103 -80 -188 -188 -188z" />
    <glyph glyph-name="paragraph" unicode="&#xb6;" horiz-adv-x="634" 
d="M37 602c0 129 100 209 257 209h220v-894h-63v835h-137v-835h-64v481c-106 6 -213 73 -213 204z" />
    <glyph glyph-name="numbersign" unicode="#" horiz-adv-x="809" 
d="M90 589h167l31 222h74l-31 -222h197l31 222h73l-31 -222h168l-12 -73h-166l-28 -205h169l-12 -74h-167l-32 -237h-74l32 237h-197l-32 -237h-74l32 237h-168l13 74h165l29 205h-171zM321 516l-29 -205h197l29 205h-197z" />
    <glyph glyph-name="percent" unicode="%" horiz-adv-x="1003" 
d="M239 344c-125 0 -184 95 -184 239c0 145 59 240 184 240s185 -95 185 -240c0 -144 -60 -239 -185 -239zM239 411c70 0 113 54 113 172c0 120 -43 173 -113 173c-69 0 -114 -53 -114 -173c0 -118 45 -172 114 -172zM169 0h91l567 811h-91zM763 -11
c-125 0 -184 95 -184 239c0 145 59 240 184 240s185 -95 185 -240c0 -144 -60 -239 -185 -239zM763 56c70 0 113 54 113 172c0 120 -43 173 -113 173c-69 0 -114 -53 -114 -173c0 -118 45 -172 114 -172z" />
    <glyph glyph-name="perthousand" unicode="&#x2030;" horiz-adv-x="1417" 
d="M224 344c-125 0 -184 95 -184 239c0 145 59 240 184 240s185 -95 185 -240c0 -144 -60 -239 -185 -239zM224 411c70 0 113 54 113 172c0 120 -43 173 -113 173c-69 0 -114 -53 -114 -173c0 -118 45 -172 114 -172zM154 0h91l567 811h-91zM748 -11
c-125 0 -184 95 -184 239c0 145 59 240 184 240s185 -95 185 -240c0 -144 -60 -239 -185 -239zM748 56c70 0 113 54 113 172c0 120 -43 173 -113 173c-69 0 -114 -53 -114 -173c0 -118 45 -172 114 -172zM1192 -11c-125 0 -184 95 -184 239c0 145 59 240 184 240
s185 -95 185 -240c0 -144 -60 -239 -185 -239zM1192 56c70 0 113 54 113 172c0 120 -43 173 -113 173c-69 0 -114 -53 -114 -173c0 -118 45 -172 114 -172z" />
    <glyph glyph-name="dagger" unicode="&#x2020;" horiz-adv-x="617" 
d="M268 0v503h-233v76h233v232h81v-232h233v-76h-233v-503h-81z" />
    <glyph glyph-name="daggerdbl" unicode="&#x2021;" horiz-adv-x="617" 
d="M268 292v233h-233v77h233v209h81v-209h233v-77h-233v-233h233v-77h-233v-215h-81v215h-233v77h233z" />
    <glyph glyph-name="quotesingle" unicode="'" horiz-adv-x="220" 
d="M84 521l-18 290h88l-18 -290h-52z" />
    <glyph glyph-name="quotedbl" unicode="&#x22;" horiz-adv-x="422" 
d="M84 521l-18 290h88l-18 -290h-52zM287 521l-19 290h88l-18 -290h-51z" />
    <glyph glyph-name="quotedblleft" unicode="&#x201c;" horiz-adv-x="473" 
d="M414 811l-81 -264h-87l104 264h64zM205 811l-81 -264h-87l104 264h64z" />
    <glyph glyph-name="quotedblright" unicode="&#x201d;" horiz-adv-x="473" 
d="M37 547l81 264h87l-104 -264h-64zM246 547l81 264h87l-104 -264h-64z" />
    <glyph glyph-name="quoteleft" unicode="&#x2018;" horiz-adv-x="264" 
d="M205 811l-81 -264h-87l104 264h64z" />
    <glyph glyph-name="quoteright" unicode="&#x2019;" horiz-adv-x="264" 
d="M37 547l81 264h87l-104 -264h-64z" />
    <glyph glyph-name="quotesinglbase" unicode="&#x201a;" horiz-adv-x="264" 
d="M35 -166l81 264h87l-104 -264h-64z" />
    <glyph glyph-name="quotedblbase" unicode="&#x201e;" horiz-adv-x="475" 
d="M35 -166l81 264h87l-104 -264h-64zM246 -166l81 264h87l-104 -264h-64z" />
    <glyph glyph-name="guilsinglleft" unicode="&#x2039;" horiz-adv-x="322" 
d="M204 24l-171 256l170 255h86l-166 -254l166 -257h-85z" />
    <glyph glyph-name="guilsinglright" unicode="&#x203a;" horiz-adv-x="322" 
d="M289 280l-171 -256h-85l165 257l-165 254h86z" />
    <glyph glyph-name="guillemotleft" unicode="&#xab;" horiz-adv-x="548" 
d="M204 24l-171 256l170 255h86l-166 -254l166 -257h-85zM431 24l-170 256l169 255h85l-164 -254l164 -257h-84z" />
    <glyph glyph-name="guillemotright" unicode="&#xbb;" horiz-adv-x="548" 
d="M515 280l-171 -256h-85l165 257l-165 254h86zM287 280l-170 -256h-84l164 257l-164 254h85z" />
    <glyph glyph-name="asterisk" unicode="*" horiz-adv-x="391" 
d="M223 811v-143l143 48l18 -53l-143 -47l88 -120l-45 -33l-89 121l-86 -121l-47 32l86 120l-141 50l17 53l142 -50v143h57z" />
    <glyph glyph-name="periodcentered" unicode="&#xb7;" horiz-adv-x="266" 
d="M133 218c-32 0 -57 25 -57 57c0 30 25 56 57 56c31 0 57 -26 57 -56c0 -32 -26 -57 -57 -57z" />
    <glyph glyph-name="plus" unicode="+" horiz-adv-x="634" 
d="M276 0v236h-232v76h232v231h81v-231h233v-76h-233v-236h-81z" />
    <glyph glyph-name="minus" unicode="&#x2212;" horiz-adv-x="597" 
d="M44 236v76h509v-76h-509z" />
    <glyph glyph-name="plusminus" unicode="&#xb1;" horiz-adv-x="634" 
d="M44 0v76h546v-76h-546zM276 112v176h-232v76h232v171h81v-171h233v-76h-233v-176h-81z" />
    <glyph glyph-name="multiply" unicode="&#xd7;" horiz-adv-x="553" 
d="M67 16l-50 50l209 209l-209 210l50 51l209 -210l210 210l51 -51l-210 -210l210 -209l-51 -50l-210 209z" />
    <glyph glyph-name="divide" unicode="&#xf7;" horiz-adv-x="597" 
d="M44 236v76h509v-76h-509zM297 -23c-32 0 -61 23 -61 56c0 32 29 56 61 56c31 0 60 -24 60 -56c0 -33 -29 -56 -60 -56zM297 454c-32 0 -61 23 -61 56c0 32 29 56 61 56c31 0 60 -24 60 -56c0 -33 -29 -56 -60 -56z" />
    <glyph glyph-name="equal" unicode="=" horiz-adv-x="597" 
d="M44 353v76h509v-76h-509zM44 119v76h509v-76h-509z" />
    <glyph glyph-name="notequal" unicode="&#x2260;" horiz-adv-x="597" 
d="M44 353v76h330l96 130h83l-95 -130h95v-76h-151l-116 -158h267v-76h-323l-102 -140h-85l103 140h-102v76h158l116 158h-274z" />
    <glyph glyph-name="approxequal" unicode="&#x2248;" horiz-adv-x="635" 
d="M443 374c46 0 77 24 84 82h64c-9 -98 -60 -151 -142 -151c-94 0 -177 85 -258 85c-45 0 -76 -24 -83 -83h-64c8 98 60 151 141 151c103 0 186 -84 258 -84zM443 145c46 0 77 25 84 83h64c-9 -98 -60 -150 -142 -150c-94 0 -177 83 -258 83c-45 0 -76 -25 -83 -82h-64
c8 97 60 151 141 151c103 0 186 -85 258 -85z" />
    <glyph glyph-name="greater" unicode="&#x3e;" horiz-adv-x="667" 
d="M44 551l579 -241v-83l-579 -241v82l491 200l-491 203v80z" />
    <glyph glyph-name="greaterequal" unicode="&#x2265;" horiz-adv-x="713" 
d="M56 192l506 144l-506 142v82l601 -178v-92l-601 -180v82zM657 76v-76h-601v76h601z" />
    <glyph glyph-name="less" unicode="&#x3c;" horiz-adv-x="667" 
d="M44 310l579 241v-80l-491 -203l491 -200v-82l-579 241v83z" />
    <glyph glyph-name="lessequal" unicode="&#x2264;" horiz-adv-x="713" 
d="M151 336l506 -144v-82l-601 180v92l601 178v-82zM56 0v76h601v-76h-601z" />
    <glyph glyph-name="Euro" unicode="&#x20ac;" horiz-adv-x="933" 
d="M48 346h148c-2 19 -3 39 -3 60c0 22 1 43 4 64h-187l38 76h165c50 164 190 277 392 277c101 0 194 -26 263 -68l-34 -72c-60 36 -138 61 -227 61c-133 0 -252 -69 -302 -198h354l-38 -76h-336c-3 -20 -4 -42 -4 -64c0 -21 1 -41 4 -60h293l-38 -76h-236
c49 -132 169 -202 303 -202c89 0 167 25 227 61l34 -72c-69 -42 -162 -68 -263 -68c-203 0 -344 115 -393 281h-202z" />
    <glyph glyph-name="dollar" unicode="$" horiz-adv-x="728" 
d="M327 -119v109c-97 3 -193 30 -257 70l38 75c60 -38 150 -67 238 -67c124 0 208 50 208 149c0 90 -73 132 -185 163l-62 17c-144 41 -213 119 -213 226c0 122 104 190 233 199v111h72v-112c86 -6 169 -32 229 -69l-37 -74c-61 40 -148 66 -235 66
c-92 0 -174 -36 -174 -118c0 -77 53 -119 156 -149l67 -19c122 -34 238 -100 238 -238c0 -134 -94 -214 -244 -228v-111h-72z" />
    <glyph glyph-name="yen" unicode="&#xa5;" horiz-adv-x="697" 
d="M107 279v76h181l-268 456h91l238 -407l237 407h91l-269 -456h183v-76h-201v-84h201v-76h-201v-119h-83v119h-200v76h200v84h-200z" />
    <glyph glyph-name="sterling" unicode="&#xa3;" horiz-adv-x="745" 
d="M407 823c96 0 189 -25 257 -65l-34 -72c-56 34 -137 58 -220 58c-86 0 -198 -17 -198 -122c0 -63 41 -118 77 -176h242v-76h-203c8 -22 13 -45 13 -69c0 -86 -61 -167 -127 -208l1 -2c37 12 66 16 95 16c78 0 135 -39 221 -39c40 0 80 7 123 24l26 -73
c-42 -17 -95 -30 -152 -30c-86 0 -160 42 -248 42c-49 0 -110 -11 -169 -38l-30 72c71 36 174 104 174 228c0 27 -7 52 -17 77h-158v76h116c-33 54 -69 108 -69 176c0 145 148 201 280 201z" />
    <glyph glyph-name="florin" unicode="&#x192;" horiz-adv-x="616" 
d="M538 825l-15 -75c-16 7 -32 11 -50 11c-28 0 -50 -6 -64 -32c-13 -26 -20 -63 -26 -91l-25 -136h120l-11 -68h-121l-58 -314c-10 -56 -22 -132 -54 -180c-40 -58 -111 -80 -179 -80l-50 4l16 75l34 -1c119 0 134 89 151 186l57 310h-82l11 68h84l28 158
c17 98 51 178 166 178c23 0 46 -4 68 -13z" />
    <glyph glyph-name="cent" unicode="&#xa2;" horiz-adv-x="547" 
d="M286 -103v94c-142 15 -247 128 -247 281c0 152 105 267 247 283v94h46v-92c70 -2 126 -19 176 -45l-35 -74c-39 23 -84 38 -141 40v-410c57 1 102 16 141 40l35 -74c-50 -27 -106 -43 -176 -45v-92h-46zM125 272c0 -105 63 -186 161 -202v405c-98 -15 -161 -97 -161 -203
z" />
    <glyph glyph-name="copyright" unicode="&#xa9;" horiz-adv-x="956" 
d="M60 405c0 249 186 422 418 422c231 0 418 -173 418 -422c0 -250 -187 -419 -418 -419c-232 0 -418 169 -418 419zM257 411c0 136 98 232 228 232c64 0 115 -15 155 -39l-24 -54c-36 22 -77 35 -130 35c-95 0 -163 -72 -163 -174c0 -100 68 -173 163 -173
c53 0 94 14 130 35l24 -54c-40 -24 -91 -39 -155 -39c-130 0 -228 96 -228 231zM126 405c0 -213 153 -360 352 -360c201 0 353 147 353 360c0 214 -152 360 -353 360c-199 0 -352 -146 -352 -360z" />
    <glyph glyph-name="registered" unicode="&#xae;" horiz-adv-x="956" 
d="M60 405c0 249 186 422 418 422c231 0 418 -173 418 -422c0 -250 -187 -419 -418 -419c-232 0 -418 169 -418 419zM126 405c0 -213 153 -360 352 -360c201 0 353 147 353 360c0 214 -152 360 -353 360c-199 0 -352 -146 -352 -360zM608 195l-95 183c-9 -1 -18 -1 -27 -1
h-104v-182h-62v445h152c107 0 192 -24 192 -131c0 -60 -34 -99 -89 -119l103 -195h-70zM600 508c0 56 -47 75 -112 75h-106v-150h110c75 0 108 26 108 75z" />
    <glyph glyph-name="trademark" unicode="&#x2122;" horiz-adv-x="1007" 
d="M166 363v392h-150v56h360v-56h-150v-392h-60zM698 363h-59l-153 396v-396h-60v448h95l148 -386l146 386h95v-448h-59v396z" />
    <glyph glyph-name="Eth" unicode="&#xd0;" horiz-adv-x="855" 
d="M143 0v383h-103v77h103v351h190c266 0 462 -139 462 -404c0 -263 -194 -407 -460 -407h-192zM227 79h104c237 0 375 114 375 328c0 209 -153 325 -373 325h-106v-272h158v-77h-158v-304z" />
    <glyph glyph-name="eth" unicode="&#xf0;" horiz-adv-x="734" 
d="M267 624l-29 41l89 58l-65 88h101l31 -43l100 65l30 -41l-100 -65l148 -203c67 -93 97 -158 97 -242c0 -167 -133 -293 -302 -293c-175 0 -302 135 -302 293c0 169 129 294 285 294c32 0 65 -5 98 -16l-91 123zM367 68c131 0 216 99 216 217c0 116 -87 214 -216 214
c-131 0 -216 -98 -216 -214c0 -118 85 -217 216 -217z" />
    <glyph glyph-name="Lslash" unicode="&#x141;" horiz-adv-x="658" 
d="M23 287l-33 69l164 78v377h84v-337l203 97l33 -69l-236 -113v-310h400v-79h-484v349z" />
    <glyph glyph-name="lslash" unicode="&#x142;" horiz-adv-x="393" 
d="M32 295l-32 66l156 73v377h81v-339l124 59l32 -66l-156 -74v-391h-81v353z" />
    <glyph glyph-name="Scaron" unicode="&#x160;" horiz-adv-x="728" 
d="M108 135c60 -38 150 -67 238 -67c124 0 208 50 208 149c0 90 -73 132 -185 163l-62 17c-144 41 -213 119 -213 226c0 132 121 200 264 200c100 0 201 -28 270 -71l-37 -74c-61 40 -148 66 -235 66c-92 0 -174 -36 -174 -118c0 -77 53 -119 156 -149l67 -19
c122 -34 238 -100 238 -238c0 -149 -116 -231 -296 -231c-103 0 -208 29 -277 71zM317 845l-147 143h84l103 -88l106 88h84l-149 -143h-81z" />
    <glyph glyph-name="scaron" unicode="&#x161;" horiz-adv-x="554" 
d="M449 435c-51 28 -113 43 -185 43c-75 0 -122 -23 -122 -69c0 -48 33 -66 121 -85l40 -8c145 -29 196 -80 196 -171c0 -96 -96 -156 -235 -156c-82 0 -160 20 -219 52l34 79c51 -31 129 -52 186 -52c82 0 147 19 147 79c0 48 -34 74 -122 92l-44 9
c-131 27 -188 75 -188 161c0 88 89 148 209 148c81 0 156 -16 214 -48zM222 668l-147 143h84l103 -88l106 88h84l-149 -143h-81z" />
    <glyph glyph-name="Yacute" unicode="&#xdd;" horiz-adv-x="697" 
d="M349 407l234 404h94l-286 -490v-321h-85v321l-286 490h94zM517 988l-136 -143h-81l123 143h94z" />
    <glyph glyph-name="yacute" unicode="&#xfd;" horiz-adv-x="627" 
d="M449 89v454h81v-544c0 -161 -79 -224 -251 -224c-52 0 -131 11 -184 35l-10 90c50 -26 135 -50 193 -50c102 0 171 40 171 137v20c-45 -9 -92 -18 -140 -18c-138 0 -229 44 -229 225v329h81v-295c0 -143 37 -180 148 -180c41 0 86 5 140 21zM480 811l-136 -143h-81
l123 143h94z" />
    <glyph glyph-name="Thorn" unicode="&#xde;" horiz-adv-x="719" 
d="M394 169h-190v-169h-84v811h84v-163h190c200 0 286 -110 286 -233c0 -129 -88 -246 -286 -246zM374 569h-170v-322h170c133 0 217 48 217 166c0 96 -64 156 -217 156z" />
    <glyph glyph-name="thorn" unicode="&#xfe;" horiz-adv-x="642" 
d="M178 1v-221h-81v1031h81v-265c37 6 77 11 110 11c208 0 315 -124 315 -282s-108 -286 -311 -286c-28 0 -68 4 -114 12zM178 463v-380c48 -12 83 -15 112 -15c148 0 227 78 227 207s-79 203 -227 203c-34 0 -70 -6 -112 -15z" />
    <glyph glyph-name="Zcaron" unicode="&#x17d;" horiz-adv-x="749" 
d="M108 732v79h555v-79l-504 -653h515v-79h-614v79l505 653h-457zM345 845l-147 143h84l103 -88l106 88h84l-149 -143h-81z" />
    <glyph glyph-name="zcaron" unicode="&#x17e;" horiz-adv-x="551" 
d="M63 467v76h426v-76l-348 -391h355v-76h-456v76l350 391h-327zM234 668l-147 143h84l103 -88l106 88h84l-149 -143h-81z" />
    <glyph glyph-name="onesuperior" unicode="&#xb9;" horiz-adv-x="198" 
d="M116 464v289l-66 -14v29l98 22v-326h-32z" />
    <glyph glyph-name="threesuperior" unicode="&#xb3;" horiz-adv-x="328" 
d="M156 459c-40 0 -77 13 -106 34l17 28c24 -19 52 -30 86 -30c49 0 90 21 90 63c0 47 -38 63 -95 63h-7v31h5c61 0 89 20 89 57c0 35 -34 56 -79 56c-34 0 -60 -11 -84 -30l-16 28c28 22 63 34 103 34c62 0 111 -31 111 -83c0 -41 -28 -68 -53 -76c30 -8 61 -34 61 -82
c0 -61 -54 -93 -122 -93z" />
    <glyph glyph-name="twosuperior" unicode="&#xb2;" horiz-adv-x="330" 
d="M162 764c-35 0 -59 -11 -83 -30l-17 28c28 22 62 34 103 34c58 0 107 -30 107 -88c0 -69 -62 -128 -175 -211h183v-30h-230v30c115 85 187 145 187 206c0 43 -36 61 -75 61z" />
    <glyph glyph-name="brokenbar" unicode="&#xa6;" horiz-adv-x="275" 
d="M97 411v400h81v-400h-81zM97 -220v400h81v-400h-81z" />
    <glyph glyph-name="ampersand" unicode="&#x26;" horiz-adv-x="890" 
d="M341 -11c-167 0 -281 96 -281 240c0 117 74 193 223 241c-58 65 -97 122 -97 190c0 98 91 163 218 163c124 0 217 -64 217 -173c0 -90 -69 -165 -198 -210l202 -211c39 61 65 133 76 207h85c-15 -96 -52 -189 -106 -264l165 -172h-109l-107 111
c-75 -75 -172 -122 -288 -122zM344 68c95 0 172 38 231 98l-241 250c-126 -37 -188 -94 -188 -183c0 -104 86 -165 198 -165zM272 656c0 -60 49 -110 98 -161c110 33 166 80 166 152c0 65 -57 97 -130 97c-72 0 -134 -26 -134 -88z" />
    <glyph glyph-name="semicolon" unicode=";" horiz-adv-x="269" 
d="M35 -166l81 264h87l-104 -264h-64zM157 429c-32 0 -61 23 -61 56c0 32 29 56 61 56c31 0 60 -24 60 -56c0 -33 -29 -56 -60 -56z" />
    <glyph glyph-name="question" unicode="?" horiz-adv-x="544" 
d="M203 -11c34 0 64 24 64 60c0 35 -30 60 -64 60s-64 -25 -64 -60c0 -36 30 -60 64 -60zM214 823c156 0 265 -99 265 -235c0 -151 -113 -225 -233 -242v-126h-84v196h9c111 0 221 49 221 168c0 96 -83 160 -186 160c-71 0 -117 -20 -167 -46l13 90c53 22 90 35 162 35z" />
    <glyph glyph-name="A" unicode="A" horiz-adv-x="770" 
d="M433 811l317 -811h-88l-92 237h-370l-92 -237h-88l316 811h97zM385 715l-154 -398h308z" />
    <glyph glyph-name="B" unicode="B" horiz-adv-x="769" 
d="M654 612c0 -71 -35 -144 -114 -179c112 -30 159 -122 159 -206c0 -162 -133 -227 -284 -227h-295v811h252c197 0 282 -89 282 -199zM611 227c0 122 -95 154 -215 154h-192v-302h202c139 0 205 55 205 148zM565 600c0 68 -58 132 -192 132h-169v-272h169
c127 0 192 50 192 140z" />
    <glyph glyph-name="C" unicode="C" horiz-adv-x="802" 
d="M476 744c-174 0 -326 -118 -326 -338c0 -219 152 -338 326 -338c89 0 167 25 227 62l34 -73c-69 -42 -162 -68 -263 -68c-255 0 -414 182 -414 417s159 417 414 417c101 0 194 -25 263 -67l-34 -73c-60 37 -138 61 -227 61z" />
    <glyph glyph-name="D" unicode="D" horiz-adv-x="833" 
d="M204 79h105c236 0 374 114 374 328c0 209 -153 325 -372 325h-107v-653zM120 0v811h190c266 0 463 -139 463 -404c0 -263 -194 -407 -460 -407h-193z" />
    <glyph glyph-name="E" unicode="E" horiz-adv-x="687" 
d="M120 0v811h483v-79h-399v-272h362v-80h-362v-301h403v-79h-487z" />
    <glyph glyph-name="F" unicode="F" horiz-adv-x="628" 
d="M204 0h-84v811h478v-79h-394v-272h354v-80h-354v-380z" />
    <glyph glyph-name="G" unicode="G" horiz-adv-x="886" 
d="M474 -11c-255 0 -414 182 -414 417s159 417 414 417c106 0 205 -25 274 -67l-34 -73c-61 37 -144 61 -238 61c-174 0 -326 -118 -326 -338c0 -219 152 -338 326 -338c78 0 147 14 206 45v210h-220v81h304v-345c-72 -44 -189 -70 -292 -70z" />
    <glyph glyph-name="H" unicode="H" horiz-adv-x="874" 
d="M204 0h-84v811h84v-351h466v351h84v-811h-84v380h-466v-380z" />
    <glyph glyph-name="I" unicode="I" horiz-adv-x="324" 
d="M204 0h-84v811h84v-811z" />
    <glyph glyph-name="J" unicode="J" horiz-adv-x="478" 
d="M10 27l34 73c31 -18 72 -32 121 -32c65 0 109 36 109 127v616h84v-613c0 -155 -77 -209 -183 -209c-68 0 -125 17 -165 38z" />
    <glyph glyph-name="K" unicode="K" horiz-adv-x="729" 
d="M204 0h-84v811h84v-406l368 406h106l-370 -405l401 -406h-110l-395 403v-403z" />
    <glyph glyph-name="L" unicode="L" horiz-adv-x="624" 
d="M204 811v-732h400v-79h-484v811h84z" />
    <glyph glyph-name="M" unicode="M" horiz-adv-x="1050" 
d="M578 0h-106l-268 739v-739h-84v811h143l262 -728l262 728h143v-811h-84v739z" />
    <glyph glyph-name="N" unicode="N" horiz-adv-x="864" 
d="M616 0l-412 733v-733h-84v811h128l412 -733v733h84v-811h-128z" />
    <glyph glyph-name="O" unicode="O" horiz-adv-x="950" 
d="M890 406c0 -239 -177 -417 -415 -417s-415 178 -415 417c0 240 177 417 415 417s415 -177 415 -417zM800 406c0 207 -148 338 -325 338s-325 -131 -325 -338c0 -206 148 -338 325 -338s325 132 325 338z" />
    <glyph glyph-name="P" unicode="P" horiz-adv-x="700" 
d="M394 331h-190v-331h-84v811h274c200 0 286 -110 286 -234c0 -128 -88 -246 -286 -246zM374 732h-170v-322h170c133 0 217 48 217 166c0 96 -64 156 -217 156z" />
    <glyph glyph-name="Q" unicode="Q" horiz-adv-x="950" 
d="M890 406c0 -132 -54 -245 -142 -320l116 -121l-55 -58l-128 133c-60 -33 -130 -51 -206 -51c-238 0 -415 178 -415 417c0 240 177 417 415 417s415 -177 415 -417zM800 406c0 207 -148 338 -325 338s-325 -131 -325 -338c0 -206 148 -338 325 -338c53 0 103 11 148 33
l-117 123l57 56l127 -133c67 59 110 148 110 259z" />
    <glyph glyph-name="R" unicode="R" horiz-adv-x="769" 
d="M375 347h-171v-347h-84v811h274c206 0 285 -107 285 -229c0 -91 -40 -190 -187 -223l227 -359h-97l-219 347h-28zM373 732h-169v-309h169c134 0 217 39 217 158c0 97 -64 151 -217 151z" />
    <glyph glyph-name="S" unicode="S" horiz-adv-x="728" 
d="M108 135c60 -38 150 -67 238 -67c124 0 208 50 208 149c0 90 -73 132 -185 163l-62 17c-144 41 -213 119 -213 226c0 132 121 200 264 200c100 0 201 -28 270 -71l-37 -74c-61 40 -148 66 -235 66c-92 0 -174 -36 -174 -118c0 -77 53 -119 156 -149l67 -19
c122 -34 238 -100 238 -238c0 -149 -116 -231 -296 -231c-103 0 -208 29 -277 71z" />
    <glyph glyph-name="T" unicode="T" horiz-adv-x="698" 
d="M307 0v732h-287v79h658v-79h-287v-732h-84z" />
    <glyph glyph-name="U" unicode="U" horiz-adv-x="893" 
d="M447 -11c-251 0 -337 148 -337 326v496h84v-477c0 -175 73 -266 253 -266c178 0 252 91 252 266v477h84v-496c0 -178 -86 -326 -336 -326z" />
    <glyph glyph-name="V" unicode="V" horiz-adv-x="764" 
d="M331 0l-301 811h89l263 -713l264 713h88l-301 -811h-102z" />
    <glyph glyph-name="W" unicode="W" horiz-adv-x="1058" 
d="M586 811l162 -681l186 681h89l-223 -811h-101l-170 713l-170 -713h-101l-223 811h89l186 -681l162 681h114z" />
    <glyph glyph-name="X" unicode="X" horiz-adv-x="770" 
d="M714 811l-282 -390l308 -421h-96l-261 354l-256 -354h-97l305 420l-286 391h98l237 -324l236 324h94z" />
    <glyph glyph-name="Y" unicode="Y" horiz-adv-x="697" 
d="M349 407l234 404h94l-286 -490v-321h-85v321l-286 490h94z" />
    <glyph glyph-name="Z" unicode="Z" horiz-adv-x="749" 
d="M108 732v79h555v-79l-504 -653h515v-79h-614v79l505 653h-457z" />
    <glyph glyph-name="grave" unicode="`" horiz-adv-x="237" 
d="M146 668l-136 143h94l123 -143h-81z" />
    <glyph glyph-name="a" unicode="a" horiz-adv-x="621" 
d="M447 92v164c-30 7 -80 12 -119 12c-89 0 -182 -17 -182 -103c0 -76 79 -97 163 -97c48 0 98 9 138 24zM310 -11c-130 0 -250 43 -250 173c0 127 108 181 268 181c31 0 73 -4 119 -10v13c0 96 -54 132 -153 132c-59 0 -133 -24 -183 -50l13 90c53 22 110 39 180 39
c142 0 224 -60 224 -208v-318c-61 -25 -141 -42 -218 -42z" />
    <glyph glyph-name="b" unicode="b" horiz-adv-x="642" 
d="M178 463v-380c42 -9 78 -15 111 -15c149 0 227 74 227 203s-78 207 -227 207c-29 0 -64 -3 -111 -15zM178 811v-266c46 8 85 12 114 12c202 0 311 -128 311 -286s-107 -282 -315 -282c-61 0 -133 10 -191 27v795h81z" />
    <glyph glyph-name="c" unicode="c" horiz-adv-x="547" 
d="M39 272c0 164 122 285 280 285c77 0 136 -17 189 -45l-35 -74c-41 25 -89 40 -152 40c-117 0 -196 -88 -196 -206c0 -117 79 -204 196 -204c63 0 111 15 152 40l35 -74c-53 -28 -112 -45 -189 -45c-158 0 -280 119 -280 283z" />
    <glyph glyph-name="d" unicode="d" horiz-adv-x="641" 
d="M125 271c0 -129 79 -203 227 -203c33 0 70 6 111 15v380c-47 12 -82 15 -111 15c-148 0 -227 -78 -227 -207zM463 545v266h81v-795c-58 -17 -129 -27 -190 -27c-209 0 -315 124 -315 282s108 286 311 286c28 0 67 -4 113 -12z" />
    <glyph glyph-name="e" unicode="e" horiz-adv-x="626" 
d="M324 68c82 0 143 22 189 50l37 -73c-56 -31 -124 -56 -227 -56c-164 0 -284 122 -284 284c0 166 124 284 280 284c158 0 272 -111 270 -306h-466c9 -111 88 -183 201 -183zM318 478c-106 0 -174 -61 -191 -155h373c-11 99 -83 155 -182 155z" />
    <glyph glyph-name="f" unicode="f" horiz-adv-x="439" 
d="M14 467v76h114v84c0 133 75 184 203 184h107v-76h-111c-90 0 -118 -32 -118 -130v-62h224v-76h-224v-467h-81v467h-114z" />
    <glyph glyph-name="g" unicode="g" horiz-adv-x="641" 
d="M463 89v374c-41 9 -78 15 -111 15c-148 0 -227 -73 -227 -200c0 -128 79 -204 227 -204c29 0 64 3 111 15zM39 278c0 156 106 279 315 279c61 0 132 -10 190 -27v-531c0 -161 -79 -224 -251 -224c-52 0 -131 11 -184 35l-10 90c50 -26 135 -50 193 -50
c102 0 171 40 171 137v19c-46 -8 -85 -11 -113 -11c-203 0 -311 126 -311 283z" />
    <glyph glyph-name="h" unicode="h" horiz-adv-x="656" 
d="M178 811v-268c53 8 106 14 149 14c138 0 236 -44 236 -225v-332h-81v298c0 143 -57 180 -160 180c-40 0 -90 -5 -144 -16v-462h-81v811h81z" />
    <glyph glyph-name="i" unicode="i" horiz-adv-x="275" 
d="M97 0v543h81v-543h-81zM138 776c32 0 57 -23 57 -54c0 -32 -26 -54 -57 -54s-57 22 -57 54c0 31 25 54 57 54z" />
    <glyph glyph-name="j" unicode="j" horiz-adv-x="285" 
d="M23 -221c-14 0 -32 1 -48 4l-11 75c16 -3 40 -5 55 -5c74 0 88 40 88 146v544h81v-538c0 -151 -33 -226 -165 -226zM145 776c32 0 57 -23 57 -54c0 -32 -26 -54 -57 -54s-57 22 -57 54c0 31 25 54 57 54z" />
    <glyph glyph-name="k" unicode="k" horiz-adv-x="558" 
d="M178 0h-81v811h81v-538l255 270h103l-257 -269l276 -274h-105l-272 269v-269z" />
    <glyph glyph-name="l" unicode="l" horiz-adv-x="275" 
d="M178 0h-81v811h81v-811z" />
    <glyph glyph-name="m" unicode="m" horiz-adv-x="973" 
d="M799 0v300c0 143 -47 178 -149 178c-39 0 -96 -12 -141 -35c14 -27 22 -76 22 -124v-319h-81v300c0 143 -48 178 -151 178c-42 0 -72 -6 -121 -17v-461h-81v528c82 16 149 29 206 29c63 0 121 -11 158 -44c59 27 136 44 194 44c135 0 225 -44 225 -225v-332h-81z" />
    <glyph glyph-name="n" unicode="n" horiz-adv-x="656" 
d="M97 0v531c80 15 167 26 230 26c138 0 236 -44 236 -225v-332h-81v298c0 143 -57 180 -160 180c-40 0 -90 -5 -144 -16v-462h-81z" />
    <glyph glyph-name="o" unicode="o" horiz-adv-x="643" 
d="M321 -11c-160 0 -282 126 -282 283c0 158 122 285 282 285s283 -127 283 -285c0 -157 -123 -283 -283 -283zM321 68c119 0 196 93 196 204c0 112 -77 206 -196 206c-118 0 -196 -94 -196 -206c0 -111 78 -204 196 -204z" />
    <glyph glyph-name="p" unicode="p" horiz-adv-x="642" 
d="M178 463v-380c48 -12 83 -15 112 -15c148 0 227 78 227 207s-79 203 -227 203c-34 0 -70 -6 -112 -15zM178 1v-221h-81v750c59 17 130 27 191 27c208 0 315 -124 315 -282s-108 -286 -311 -286c-28 0 -68 4 -114 12z" />
    <glyph glyph-name="q" unicode="q" horiz-adv-x="641" 
d="M125 275c0 -129 79 -207 227 -207c29 0 64 3 111 15v380c-41 9 -78 15 -111 15c-148 0 -227 -74 -227 -203zM463 -220v221c-46 -8 -85 -12 -113 -12c-203 0 -311 128 -311 286s106 282 315 282c61 0 132 -10 190 -27v-750h-81z" />
    <glyph glyph-name="r" unicode="r" horiz-adv-x="409" 
d="M379 546v-77h-80c-34 0 -95 -7 -121 -17v-452h-81v521c53 13 128 25 186 25h96z" />
    <glyph glyph-name="s" unicode="s" horiz-adv-x="554" 
d="M449 435c-51 28 -113 43 -185 43c-75 0 -122 -23 -122 -69c0 -48 33 -66 121 -85l40 -8c145 -29 196 -80 196 -171c0 -96 -96 -156 -235 -156c-82 0 -160 20 -219 52l34 79c51 -31 129 -52 186 -52c82 0 147 19 147 79c0 48 -34 74 -122 92l-44 9
c-131 27 -188 75 -188 161c0 88 89 148 209 148c81 0 156 -16 214 -48z" />
    <glyph glyph-name="t" unicode="t" horiz-adv-x="488" 
d="M14 467v76h114v202h81v-202h224v-76h-224v-254c0 -103 32 -137 123 -137h106v-76h-107c-128 0 -203 43 -203 176v291h-114z" />
    <glyph glyph-name="u" unicode="u" horiz-adv-x="627" 
d="M449 89v454h81v-516c-71 -23 -143 -38 -221 -38c-138 0 -229 44 -229 225v329h81v-295c0 -143 37 -180 148 -180c41 0 86 5 140 21z" />
    <glyph glyph-name="v" unicode="v" horiz-adv-x="569" 
d="M336 0h-102l-214 543h88l177 -457l176 457h88z" />
    <glyph glyph-name="w" unicode="w" horiz-adv-x="878" 
d="M682 0h-103l-140 461l-140 -461h-101l-168 543h90l131 -457l138 457h100l139 -457l131 457h89z" />
    <glyph glyph-name="x" unicode="x" horiz-adv-x="572" 
d="M539 542l-204 -262l217 -280h-97l-169 217l-169 -217h-97l218 278l-205 264h99l155 -201l157 201h95z" />
    <glyph glyph-name="y" unicode="y" horiz-adv-x="627" 
d="M449 89v454h81v-544c0 -161 -79 -224 -251 -224c-52 0 -131 11 -184 35l-10 90c50 -26 135 -50 193 -50c102 0 171 40 171 137v20c-45 -9 -92 -18 -140 -18c-138 0 -229 44 -229 225v329h81v-295c0 -143 37 -180 148 -180c41 0 86 5 140 21z" />
    <glyph glyph-name="z" unicode="z" horiz-adv-x="551" 
d="M63 467v76h426v-76l-348 -391h355v-76h-456v76l350 391h-327z" />
    <glyph glyph-name="Adieresis" unicode="&#xc4;" horiz-adv-x="770" 
d="M433 811l317 -811h-88l-92 237h-370l-92 -237h-88l316 811h97zM385 715l-154 -398h308zM255 974c32 0 57 -23 57 -54c0 -32 -26 -54 -57 -54s-57 22 -57 54c0 31 25 54 57 54zM515 974c32 0 57 -23 57 -54c0 -32 -26 -54 -57 -54s-57 22 -57 54c0 31 25 54 57 54z" />
    <glyph glyph-name="Aring" unicode="&#xc5;" horiz-adv-x="770" 
d="M433 811l317 -811h-88l-92 237h-370l-92 -237h-88l316 811h97zM385 715l-154 -398h308zM385 1051c60 0 108 -43 108 -103s-48 -103 -108 -103c-61 0 -109 43 -109 103s48 103 109 103zM385 1008c-32 0 -61 -23 -61 -60c0 -36 29 -59 61 -59s60 23 60 59
c0 37 -28 60 -60 60z" />
    <glyph glyph-name="Ccedilla" unicode="&#xc7;" horiz-adv-x="802" 
d="M295 -210l-4 54c15 -6 54 -16 81 -16c31 0 64 10 64 38c0 29 -33 39 -68 39c-25 0 -51 -4 -65 -7l63 103c-191 44 -306 205 -306 405c0 235 159 417 414 417c101 0 194 -25 263 -67l-34 -73c-60 37 -138 61 -227 61c-174 0 -326 -118 -326 -338c0 -219 152 -338 326 -338
c89 0 167 25 227 62l34 -73c-69 -42 -162 -68 -263 -68c-22 0 -42 2 -62 4l-29 -49c43 3 113 -9 113 -74c0 -67 -60 -93 -120 -93c-31 0 -52 3 -81 13z" />
    <glyph glyph-name="Eacute" unicode="&#xc9;" horiz-adv-x="687" 
d="M120 0v811h483v-79h-399v-272h362v-80h-362v-301h403v-79h-487zM534 988l-136 -143h-81l123 143h94z" />
    <glyph glyph-name="Ntilde" unicode="&#xd1;" horiz-adv-x="864" 
d="M616 0l-412 733v-733h-84v811h128l412 -733v733h84v-811h-128zM493 924c26 0 42 12 46 52h64c-5 -85 -39 -121 -105 -121s-107 52 -159 52c-25 0 -40 -12 -43 -52h-66c5 83 41 121 106 121c68 0 108 -52 157 -52z" />
    <glyph glyph-name="Odieresis" unicode="&#xd6;" horiz-adv-x="950" 
d="M890 406c0 -239 -177 -417 -415 -417s-415 178 -415 417c0 240 177 417 415 417s415 -177 415 -417zM800 406c0 207 -148 338 -325 338s-325 -131 -325 -338c0 -206 148 -338 325 -338s325 132 325 338zM345 974c32 0 57 -23 57 -54c0 -32 -26 -54 -57 -54s-57 22 -57 54
c0 31 25 54 57 54zM605 974c32 0 57 -23 57 -54c0 -32 -26 -54 -57 -54s-57 22 -57 54c0 31 25 54 57 54z" />
    <glyph glyph-name="Udieresis" unicode="&#xdc;" horiz-adv-x="893" 
d="M447 -11c-251 0 -337 148 -337 326v496h84v-477c0 -175 73 -266 253 -266c178 0 252 91 252 266v477h84v-496c0 -178 -86 -326 -336 -326zM312 974c32 0 57 -23 57 -54c0 -32 -26 -54 -57 -54s-57 22 -57 54c0 31 25 54 57 54zM572 974c32 0 57 -23 57 -54
c0 -32 -26 -54 -57 -54s-57 22 -57 54c0 31 25 54 57 54z" />
    <glyph glyph-name="aacute" unicode="&#xe1;" horiz-adv-x="621" 
d="M447 92v164c-30 7 -80 12 -119 12c-89 0 -182 -17 -182 -103c0 -76 79 -97 163 -97c48 0 98 9 138 24zM310 -11c-130 0 -250 43 -250 173c0 127 108 181 268 181c31 0 73 -4 119 -10v13c0 96 -54 132 -153 132c-59 0 -133 -24 -183 -50l13 90c53 22 110 39 180 39
c142 0 224 -60 224 -208v-318c-61 -25 -141 -42 -218 -42zM490 811l-136 -143h-81l123 143h94z" />
    <glyph glyph-name="agrave" unicode="&#xe0;" horiz-adv-x="621" 
d="M447 92v164c-30 7 -80 12 -119 12c-89 0 -182 -17 -182 -103c0 -76 79 -97 163 -97c48 0 98 9 138 24zM310 -11c-130 0 -250 43 -250 173c0 127 108 181 268 181c31 0 73 -4 119 -10v13c0 96 -54 132 -153 132c-59 0 -133 -24 -183 -50l13 90c53 22 110 39 180 39
c142 0 224 -60 224 -208v-318c-61 -25 -141 -42 -218 -42zM311 668l-136 143h94l123 -143h-81z" />
    <glyph glyph-name="acircumflex" unicode="&#xe2;" horiz-adv-x="621" 
d="M447 92v164c-30 7 -80 12 -119 12c-89 0 -182 -17 -182 -103c0 -76 79 -97 163 -97c48 0 98 9 138 24zM310 -11c-130 0 -250 43 -250 173c0 127 108 181 268 181c31 0 73 -4 119 -10v13c0 96 -54 132 -153 132c-59 0 -133 -24 -183 -50l13 90c53 22 110 39 180 39
c142 0 224 -60 224 -208v-318c-61 -25 -141 -42 -218 -42zM356 811l147 -143h-84l-103 88l-106 -88h-84l149 143h81z" />
    <glyph glyph-name="adieresis" unicode="&#xe4;" horiz-adv-x="621" 
d="M447 92v164c-30 7 -80 12 -119 12c-89 0 -182 -17 -182 -103c0 -76 79 -97 163 -97c48 0 98 9 138 24zM310 -11c-130 0 -250 43 -250 173c0 127 108 181 268 181c31 0 73 -4 119 -10v13c0 96 -54 132 -153 132c-59 0 -133 -24 -183 -50l13 90c53 22 110 39 180 39
c142 0 224 -60 224 -208v-318c-61 -25 -141 -42 -218 -42zM173 776c32 0 57 -23 57 -54c0 -32 -26 -54 -57 -54s-57 22 -57 54c0 31 25 54 57 54zM433 776c32 0 57 -23 57 -54c0 -32 -26 -54 -57 -54s-57 22 -57 54c0 31 25 54 57 54z" />
    <glyph glyph-name="atilde" unicode="&#xe3;" horiz-adv-x="621" 
d="M447 92v164c-30 7 -80 12 -119 12c-89 0 -182 -17 -182 -103c0 -76 79 -97 163 -97c48 0 98 9 138 24zM310 -11c-130 0 -250 43 -250 173c0 127 108 181 268 181c31 0 73 -4 119 -10v13c0 96 -54 132 -153 132c-59 0 -133 -24 -183 -50l13 90c53 22 110 39 180 39
c142 0 224 -60 224 -208v-318c-61 -25 -141 -42 -218 -42zM394 746c26 0 42 12 46 52h64c-5 -85 -39 -121 -105 -121s-107 52 -159 52c-25 0 -40 -12 -43 -52h-66c5 83 41 121 106 121c68 0 108 -52 157 -52z" />
    <glyph glyph-name="aring" unicode="&#xe5;" horiz-adv-x="621" 
d="M447 92v164c-30 7 -80 12 -119 12c-89 0 -182 -17 -182 -103c0 -76 79 -97 163 -97c48 0 98 9 138 24zM310 -11c-130 0 -250 43 -250 173c0 127 108 181 268 181c31 0 73 -4 119 -10v13c0 96 -54 132 -153 132c-59 0 -133 -24 -183 -50l13 90c53 22 110 39 180 39
c142 0 224 -60 224 -208v-318c-61 -25 -141 -42 -218 -42zM314 847c60 0 108 -43 108 -103s-48 -103 -108 -103c-61 0 -109 43 -109 103s48 103 109 103zM314 804c-32 0 -61 -23 -61 -60c0 -36 29 -59 61 -59s60 23 60 59c0 37 -28 60 -60 60z" />
    <glyph glyph-name="ccedilla" unicode="&#xe7;" horiz-adv-x="547" 
d="M164 -210l-4 54c15 -6 54 -16 81 -16c31 0 64 10 64 38c0 29 -33 39 -68 39c-25 0 -51 -4 -65 -7l63 103c-115 34 -196 137 -196 271c0 164 122 285 280 285c77 0 136 -17 189 -45l-35 -74c-41 25 -89 40 -152 40c-117 0 -196 -88 -196 -206c0 -117 79 -204 196 -204
c63 0 111 15 152 40l35 -74c-53 -28 -112 -45 -189 -45c-13 0 -26 1 -39 3l-28 -48c43 3 113 -9 113 -74c0 -67 -60 -93 -120 -93c-31 0 -52 3 -81 13z" />
    <glyph glyph-name="eacute" unicode="&#xe9;" horiz-adv-x="626" 
d="M324 68c82 0 143 22 189 50l37 -73c-56 -31 -124 -56 -227 -56c-164 0 -284 122 -284 284c0 166 124 284 280 284c158 0 272 -111 270 -306h-466c9 -111 88 -183 201 -183zM318 478c-106 0 -174 -61 -191 -155h373c-11 99 -83 155 -182 155zM470 811l-136 -143h-81
l123 143h94z" />
    <glyph glyph-name="egrave" unicode="&#xe8;" horiz-adv-x="626" 
d="M324 68c82 0 143 22 189 50l37 -73c-56 -31 -124 -56 -227 -56c-164 0 -284 122 -284 284c0 166 124 284 280 284c158 0 272 -111 270 -306h-466c9 -111 88 -183 201 -183zM318 478c-106 0 -174 -61 -191 -155h373c-11 99 -83 155 -182 155zM304 668l-136 143h94
l123 -143h-81z" />
    <glyph glyph-name="ecircumflex" unicode="&#xea;" horiz-adv-x="626" 
d="M324 68c82 0 143 22 189 50l37 -73c-56 -31 -124 -56 -227 -56c-164 0 -284 122 -284 284c0 166 124 284 280 284c158 0 272 -111 270 -306h-466c9 -111 88 -183 201 -183zM318 478c-106 0 -174 -61 -191 -155h373c-11 99 -83 155 -182 155zM367 811l147 -143h-84
l-103 88l-106 -88h-84l149 143h81z" />
    <glyph glyph-name="edieresis" unicode="&#xeb;" horiz-adv-x="626" 
d="M324 68c82 0 143 22 189 50l37 -73c-56 -31 -124 -56 -227 -56c-164 0 -284 122 -284 284c0 166 124 284 280 284c158 0 272 -111 270 -306h-466c9 -111 88 -183 201 -183zM318 478c-106 0 -174 -61 -191 -155h373c-11 99 -83 155 -182 155zM195 776c32 0 57 -23 57 -54
c0 -32 -26 -54 -57 -54s-57 22 -57 54c0 31 25 54 57 54zM455 776c32 0 57 -23 57 -54c0 -32 -26 -54 -57 -54s-57 22 -57 54c0 31 25 54 57 54z" />
    <glyph glyph-name="iacute" unicode="&#xed;" horiz-adv-x="275" 
d="M178 0h-81v543h81v-543zM287 811l-136 -143h-81l123 143h94z" />
    <glyph glyph-name="igrave" unicode="&#xec;" horiz-adv-x="275" 
d="M178 0h-81v543h81v-543zM128 668l-136 143h94l123 -143h-81z" />
    <glyph glyph-name="icircumflex" unicode="&#xee;" horiz-adv-x="275" 
d="M178 0h-81v543h81v-543zM179 811l147 -143h-84l-103 88l-106 -88h-84l149 143h81z" />
    <glyph glyph-name="idieresis" unicode="&#xef;" horiz-adv-x="275" 
d="M178 0h-81v543h81v-543zM8 776c32 0 57 -23 57 -54c0 -32 -26 -54 -57 -54s-57 22 -57 54c0 31 25 54 57 54zM268 776c32 0 57 -23 57 -54c0 -32 -26 -54 -57 -54s-57 22 -57 54c0 31 25 54 57 54z" />
    <glyph glyph-name="ntilde" unicode="&#xf1;" horiz-adv-x="656" 
d="M97 0v531c80 15 167 26 230 26c138 0 236 -44 236 -225v-332h-81v298c0 143 -57 180 -160 180c-40 0 -90 -5 -144 -16v-462h-81zM408 746c26 0 42 12 46 52h64c-5 -85 -39 -121 -105 -121s-107 52 -159 52c-25 0 -40 -12 -43 -52h-66c5 83 41 121 106 121
c68 0 108 -52 157 -52z" />
    <glyph glyph-name="oacute" unicode="&#xf3;" horiz-adv-x="643" 
d="M321 -11c-160 0 -282 126 -282 283c0 158 122 285 282 285s283 -127 283 -285c0 -157 -123 -283 -283 -283zM321 68c119 0 196 93 196 204c0 112 -77 206 -196 206c-118 0 -196 -94 -196 -206c0 -111 78 -204 196 -204zM468 811l-136 -143h-81l123 143h94z" />
    <glyph glyph-name="ograve" unicode="&#xf2;" horiz-adv-x="643" 
d="M321 -11c-160 0 -282 126 -282 283c0 158 122 285 282 285s283 -127 283 -285c0 -157 -123 -283 -283 -283zM321 68c119 0 196 93 196 204c0 112 -77 206 -196 206c-118 0 -196 -94 -196 -206c0 -111 78 -204 196 -204zM308 668l-136 143h94l123 -143h-81z" />
    <glyph glyph-name="ocircumflex" unicode="&#xf4;" horiz-adv-x="643" 
d="M321 -11c-160 0 -282 126 -282 283c0 158 122 285 282 285s283 -127 283 -285c0 -157 -123 -283 -283 -283zM321 68c119 0 196 93 196 204c0 112 -77 206 -196 206c-118 0 -196 -94 -196 -206c0 -111 78 -204 196 -204zM364 811l147 -143h-84l-103 88l-106 -88h-84
l149 143h81z" />
    <glyph glyph-name="odieresis" unicode="&#xf6;" horiz-adv-x="643" 
d="M321 -11c-160 0 -282 126 -282 283c0 158 122 285 282 285s283 -127 283 -285c0 -157 -123 -283 -283 -283zM321 68c119 0 196 93 196 204c0 112 -77 206 -196 206c-118 0 -196 -94 -196 -206c0 -111 78 -204 196 -204zM192 776c32 0 57 -23 57 -54
c0 -32 -26 -54 -57 -54s-57 22 -57 54c0 31 25 54 57 54zM452 776c32 0 57 -23 57 -54c0 -32 -26 -54 -57 -54s-57 22 -57 54c0 31 25 54 57 54z" />
    <glyph glyph-name="otilde" unicode="&#xf5;" horiz-adv-x="643" 
d="M321 -11c-160 0 -282 126 -282 283c0 158 122 285 282 285s283 -127 283 -285c0 -157 -123 -283 -283 -283zM321 68c119 0 196 93 196 204c0 112 -77 206 -196 206c-118 0 -196 -94 -196 -206c0 -111 78 -204 196 -204zM394 746c26 0 42 12 46 52h64
c-5 -85 -39 -121 -105 -121s-107 52 -159 52c-25 0 -40 -12 -43 -52h-66c5 83 41 121 106 121c68 0 108 -52 157 -52z" />
    <glyph glyph-name="uacute" unicode="&#xfa;" horiz-adv-x="627" 
d="M449 89v454h81v-516c-71 -23 -143 -38 -221 -38c-138 0 -229 44 -229 225v329h81v-295c0 -143 37 -180 148 -180c41 0 86 5 140 21zM457 811l-136 -143h-81l123 143h94z" />
    <glyph glyph-name="ugrave" unicode="&#xf9;" horiz-adv-x="627" 
d="M449 89v454h81v-516c-71 -23 -143 -38 -221 -38c-138 0 -229 44 -229 225v329h81v-295c0 -143 37 -180 148 -180c41 0 86 5 140 21zM299 668l-136 143h94l123 -143h-81z" />
    <glyph glyph-name="ucircumflex" unicode="&#xfb;" horiz-adv-x="627" 
d="M449 89v454h81v-516c-71 -23 -143 -38 -221 -38c-138 0 -229 44 -229 225v329h81v-295c0 -143 37 -180 148 -180c41 0 86 5 140 21zM348 811l147 -143h-84l-103 88l-106 -88h-84l149 143h81z" />
    <glyph glyph-name="udieresis" unicode="&#xfc;" horiz-adv-x="627" 
d="M449 89v454h81v-516c-71 -23 -143 -38 -221 -38c-138 0 -229 44 -229 225v329h81v-295c0 -143 37 -180 148 -180c41 0 86 5 140 21zM172 776c32 0 57 -23 57 -54c0 -32 -26 -54 -57 -54s-57 22 -57 54c0 31 25 54 57 54zM432 776c32 0 57 -23 57 -54
c0 -32 -26 -54 -57 -54s-57 22 -57 54c0 31 25 54 57 54z" />
    <glyph glyph-name="germandbls" unicode="&#xdf;" horiz-adv-x="741" 
d="M177 0h-80v537c0 190 90 286 282 286c150 0 257 -73 257 -195c0 -93 -52 -152 -105 -176c69 -17 165 -84 165 -219c0 -179 -137 -244 -297 -244c-36 0 -85 4 -124 12l15 79c33 -7 70 -12 105 -12c110 0 214 34 214 166c0 122 -103 169 -228 169h-13v80h12
c110 0 170 48 170 132c0 82 -71 129 -173 129c-148 0 -200 -69 -200 -216v-528z" />
    <glyph glyph-name="acute" unicode="&#xb4;" horiz-adv-x="237" 
d="M227 811l-136 -143h-81l123 143h94z" />
    <glyph glyph-name="dieresis" unicode="&#xa8;" horiz-adv-x="414" 
d="M77 776c32 0 57 -23 57 -54c0 -32 -26 -54 -57 -54s-57 22 -57 54c0 31 25 54 57 54zM337 776c32 0 57 -23 57 -54c0 -32 -26 -54 -57 -54s-57 22 -57 54c0 31 25 54 57 54z" />
    <glyph glyph-name="AE" unicode="&#xc6;" horiz-adv-x="1097" 
d="M530 811h483v-79h-399v-272h362v-80h-362v-301h403v-79h-487v237h-285l-154 -237h-91zM530 673l-233 -356h233v356z" />
    <glyph glyph-name="Oslash" unicode="&#xd8;" horiz-adv-x="950" 
d="M63 0l105 118c-68 73 -108 174 -108 288c0 240 177 417 415 417c97 0 183 -29 252 -80l103 115l56 -48l-104 -117c67 -73 108 -173 108 -287c0 -239 -177 -417 -415 -417c-97 0 -183 29 -252 80l-104 -117zM150 406c0 -91 29 -167 76 -224l445 498
c-55 41 -123 64 -196 64c-177 0 -325 -131 -325 -338zM800 406c0 90 -29 166 -75 223l-446 -498c55 -41 123 -63 196 -63c177 0 325 132 325 338z" />
    <glyph glyph-name="infinity" unicode="&#x221e;" horiz-adv-x="966" 
d="M723 499c127 0 213 -80 213 -198c0 -120 -82 -197 -205 -197c-92 0 -171 48 -250 141c-69 -81 -147 -141 -241 -141c-126 0 -210 78 -210 197c0 120 86 198 212 198c79 0 156 -38 242 -137c84 100 153 137 239 137zM242 172c83 0 136 55 194 129
c-71 87 -125 130 -200 130c-69 0 -125 -48 -125 -130c0 -72 53 -129 131 -129zM720 431c-69 0 -123 -45 -190 -126c74 -93 130 -133 200 -133c69 0 125 50 125 129c0 73 -53 130 -135 130z" />
    <glyph glyph-name="mu" unicode="&#xb5;" horiz-adv-x="674" 
d="M94 -213c6 42 10 91 10 163v593h80v-250c0 -139 54 -225 155 -225c103 0 157 88 157 225v250h81v-543h-75v118c-26 -72 -77 -127 -171 -128c-85 -1 -131 49 -153 113v-142c0 -76 -4 -131 -9 -174h-75z" />
    <glyph glyph-name="partialdiff" unicode="&#x2202;" horiz-adv-x="734" 
d="M367 -11c-175 0 -302 135 -302 293c0 169 129 294 285 294c32 0 65 -5 98 -16l-186 251h101l209 -287c67 -93 97 -158 97 -242c0 -167 -133 -293 -302 -293zM367 68c131 0 216 99 216 217c0 116 -87 214 -216 214c-131 0 -216 -98 -216 -214c0 -118 85 -217 216 -217z
" />
    <glyph glyph-name="summation" unicode="&#x2211;" horiz-adv-x="677" 
d="M30 -145l352 440l-352 440v76h617v-76h-521l356 -440l-356 -440h521v-76h-617v76z" />
    <glyph glyph-name="product" unicode="&#x220f;" horiz-adv-x="838" 
d="M201 -220h-81v1031h598v-1031h-80v955h-437v-955z" />
    <glyph glyph-name="pi" unicode="&#x3c0;" horiz-adv-x="769" 
d="M217 0h-81v467h-85v76h667v-76h-89v-299c0 -82 6 -92 73 -92h16v-76h-32c-110 0 -138 21 -138 138v329h-331v-467z" />
    <glyph glyph-name="integral" unicode="&#x222b;" horiz-adv-x="379" 
d="M149 -4v631c0 133 75 184 203 184h47v-76h-51c-90 0 -118 -42 -118 -140v-631c0 -133 -75 -184 -203 -184h-47v76h51c90 0 118 42 118 140z" />
    <glyph glyph-name="ordfeminine" unicode="&#xaa;" horiz-adv-x="470" 
d="M308 516v90c-22 6 -56 10 -78 10c-54 0 -101 -11 -101 -55s41 -59 95 -59c25 0 57 5 84 14zM222 436c-91 0 -172 32 -172 119c0 79 71 123 169 123c18 0 51 -3 89 -8v16c0 52 -43 69 -102 69c-36 0 -85 -11 -123 -27l8 69c31 13 79 26 127 26c94 0 164 -37 164 -141v-213
c-47 -18 -105 -33 -160 -33z" />
    <glyph glyph-name="ordmasculine" unicode="&#xba;" horiz-adv-x="457" 
d="M228 435c-112 0 -198 85 -198 194c0 107 86 194 198 194c113 0 199 -87 199 -194c0 -109 -86 -194 -199 -194zM228 506c76 0 122 53 122 123c0 67 -46 123 -122 123c-75 0 -121 -56 -121 -123c0 -70 46 -123 121 -123z" />
    <glyph glyph-name="Omega" unicode="&#x2126;" horiz-adv-x="934" 
d="M467 823c202 0 392 -130 392 -343c0 -174 -120 -281 -238 -312v-92h208v-76h-289v222c136 26 233 113 233 250c0 174 -138 272 -306 272s-306 -98 -306 -272c0 -137 97 -224 233 -250v-222h-289v76h208v92c-118 31 -238 138 -238 312c0 213 190 343 392 343z" />
    <glyph glyph-name="ae" unicode="&#xe6;" horiz-adv-x="1032" 
d="M730 68c82 0 143 22 189 50l37 -73c-56 -31 -124 -56 -227 -56c-89 0 -161 36 -207 95v-53c-61 -25 -135 -42 -212 -42c-130 0 -250 43 -250 173c0 127 108 181 268 181c31 0 73 -4 119 -10v13c0 96 -54 132 -153 132c-59 0 -133 -24 -183 -50l13 90c53 22 110 39 180 39
c107 0 176 -34 204 -114c46 71 122 114 217 114c158 0 272 -111 270 -306h-466c9 -111 88 -183 201 -183zM447 92v164c-30 7 -80 12 -119 12c-89 0 -182 -17 -182 -103c0 -76 79 -97 163 -97c48 0 98 9 138 24zM724 478c-106 0 -174 -61 -191 -155h373
c-11 99 -83 155 -182 155z" />
    <glyph glyph-name="oslash" unicode="&#xf8;" horiz-adv-x="643" 
d="M43 0l70 78c-46 51 -74 119 -74 194c0 158 122 285 282 285c65 0 125 -22 172 -58l70 78l37 -34l-70 -78c46 -50 74 -118 74 -193c0 -157 -123 -283 -283 -283c-65 0 -124 20 -170 55l-71 -78zM125 272c0 -50 16 -96 44 -132l270 299c-32 24 -72 39 -118 39
c-118 0 -196 -94 -196 -206zM321 68c119 0 196 93 196 204c0 49 -15 96 -43 132l-269 -299c32 -23 71 -37 116 -37z" />
    <glyph glyph-name="questiondown" unicode="&#xbf;" horiz-adv-x="544" 
d="M315 609c34 0 64 -24 64 -60c0 -35 -30 -60 -64 -60s-64 25 -64 60c0 36 30 60 64 60zM304 -225c-156 0 -265 99 -265 235c0 151 113 225 233 242v126h84v-196h-9c-111 0 -221 -49 -221 -168c0 -96 83 -160 186 -160c71 0 117 20 167 46l-13 -90
c-53 -22 -90 -35 -162 -35z" />
    <glyph glyph-name="exclamdown" unicode="&#xa1;" horiz-adv-x="311" 
d="M155 609c32 0 61 -23 61 -55c0 -33 -29 -57 -61 -57s-60 24 -60 57c0 32 28 55 60 55zM196 378v-598h-81v598h81z" />
    <glyph glyph-name="logicalnot" unicode="&#xac;" horiz-adv-x="691" 
d="M513 118v248h-469v76h550v-324h-81z" />
    <glyph glyph-name="radical" unicode="&#x221a;" horiz-adv-x="628" 
d="M5 230l158 66l188 -423l192 938h80l-211 -1025h-101l-195 422l-86 -39z" />
    <glyph glyph-name="Delta" unicode="&#x2206;" horiz-adv-x="795" 
d="M397 810l387 -810h-774zM134 76h526l-263 557z" />
    <glyph glyph-name="Agrave" unicode="&#xc0;" horiz-adv-x="770" 
d="M433 811l317 -811h-88l-92 237h-370l-92 -237h-88l316 811h97zM385 715l-154 -398h308zM342 845l-136 143h94l123 -143h-81z" />
    <glyph glyph-name="Atilde" unicode="&#xc3;" horiz-adv-x="770" 
d="M433 811l317 -811h-88l-92 237h-370l-92 -237h-88l316 811h97zM385 715l-154 -398h308zM462 924c26 0 42 12 46 52h64c-5 -85 -39 -121 -105 -121s-107 52 -159 52c-25 0 -40 -12 -43 -52h-66c5 83 41 121 106 121c68 0 108 -52 157 -52z" />
    <glyph glyph-name="Otilde" unicode="&#xd5;" horiz-adv-x="950" 
d="M890 406c0 -239 -177 -417 -415 -417s-415 178 -415 417c0 240 177 417 415 417s415 -177 415 -417zM800 406c0 207 -148 338 -325 338s-325 -131 -325 -338c0 -206 148 -338 325 -338s325 132 325 338zM546 924c26 0 42 12 46 52h64c-5 -85 -39 -121 -105 -121
s-107 52 -159 52c-25 0 -40 -12 -43 -52h-66c5 83 41 121 106 121c68 0 108 -52 157 -52z" />
    <glyph glyph-name="OE" unicode="&#x152;" horiz-adv-x="1357" 
d="M790 0v142c-69 -95 -179 -153 -315 -153c-238 0 -415 178 -415 417c0 240 177 417 415 417c136 0 246 -58 315 -153v141h483v-79h-399v-272h362v-80h-362v-301h403v-79h-487zM800 406c0 207 -148 338 -325 338s-325 -131 -325 -338c0 -206 148 -338 325 -338
s325 132 325 338z" />
    <glyph glyph-name="oe" unicode="&#x153;" horiz-adv-x="1100" 
d="M798 68c82 0 143 22 189 50l37 -73c-56 -31 -124 -56 -227 -56c-109 0 -195 53 -241 137c-46 -82 -130 -137 -235 -137c-160 0 -282 126 -282 283c0 158 122 285 282 285c105 0 189 -55 235 -138c46 85 133 138 237 138c158 0 272 -111 270 -306h-466
c9 -111 88 -183 201 -183zM321 68c119 0 196 93 196 204c0 112 -77 206 -196 206c-118 0 -196 -94 -196 -206c0 -111 78 -204 196 -204zM792 478c-106 0 -174 -61 -191 -155h373c-11 99 -83 155 -182 155z" />
    <glyph glyph-name="lozenge" unicode="&#x25ca;" horiz-adv-x="633" 
d="M318 706l-197 -330l197 -331l197 331zM33 376l284 468l282 -468l-282 -468z" />
    <glyph glyph-name="ydieresis" unicode="&#xff;" horiz-adv-x="627" 
d="M449 89v454h81v-544c0 -161 -79 -224 -251 -224c-52 0 -131 11 -184 35l-10 90c50 -26 135 -50 193 -50c102 0 171 40 171 137v20c-45 -9 -92 -18 -140 -18c-138 0 -229 44 -229 225v329h81v-295c0 -143 37 -180 148 -180c41 0 86 5 140 21zM171 776c32 0 57 -23 57 -54
c0 -32 -26 -54 -57 -54s-57 22 -57 54c0 31 25 54 57 54zM431 776c32 0 57 -23 57 -54c0 -32 -26 -54 -57 -54s-57 22 -57 54c0 31 25 54 57 54z" />
    <glyph glyph-name="Ydieresis" unicode="&#x178;" horiz-adv-x="697" 
d="M349 407l234 404h94l-286 -490v-321h-85v321l-286 490h94zM220 974c32 0 57 -23 57 -54c0 -32 -26 -54 -57 -54s-57 22 -57 54c0 31 25 54 57 54zM480 974c32 0 57 -23 57 -54c0 -32 -26 -54 -57 -54s-57 22 -57 54c0 31 25 54 57 54z" />
    <glyph glyph-name="fraction" unicode="&#x2044;" horiz-adv-x="598" 
d="M61 0h-91l567 811h91z" />
    <glyph glyph-name="fi" unicode="&#xfb01;" horiz-adv-x="714" 
d="M14 467v76h114v84c0 133 75 184 203 184h107v-76h-111c-90 0 -118 -32 -118 -130v-62h224v-76h-224v-467h-81v467h-114zM536 0v543h81v-543h-81zM577 776c32 0 57 -23 57 -54c0 -32 -26 -54 -57 -54s-57 22 -57 54c0 31 25 54 57 54z" />
    <glyph glyph-name="fl" unicode="&#xfb02;" horiz-adv-x="714" 
d="M14 467v76h114v84c0 133 75 184 203 184h107v-76h-111c-90 0 -118 -32 -118 -130v-62h224v-76h-224v-467h-81v467h-114zM617 0h-81v811h81v-811z" />
    <glyph glyph-name="Acircumflex" unicode="&#xc2;" horiz-adv-x="770" 
d="M433 811l317 -811h-88l-92 237h-370l-92 -237h-88l316 811h97zM385 715l-154 -398h308zM427 988l147 -143h-84l-103 88l-106 -88h-84l149 143h81z" />
    <glyph glyph-name="Ecircumflex" unicode="&#xca;" horiz-adv-x="687" 
d="M120 0v811h483v-79h-399v-272h362v-80h-362v-301h403v-79h-487zM403 988l147 -143h-84l-103 88l-106 -88h-84l149 143h81z" />
    <glyph glyph-name="Aacute" unicode="&#xc1;" horiz-adv-x="770" 
d="M433 811l317 -811h-88l-92 237h-370l-92 -237h-88l316 811h97zM385 715l-154 -398h308zM563 988l-136 -143h-81l123 143h94z" />
    <glyph glyph-name="Edieresis" unicode="&#xcb;" horiz-adv-x="687" 
d="M120 0v811h483v-79h-399v-272h362v-80h-362v-301h403v-79h-487zM225 974c32 0 57 -23 57 -54c0 -32 -26 -54 -57 -54s-57 22 -57 54c0 31 25 54 57 54zM485 974c32 0 57 -23 57 -54c0 -32 -26 -54 -57 -54s-57 22 -57 54c0 31 25 54 57 54z" />
    <glyph glyph-name="Egrave" unicode="&#xc8;" horiz-adv-x="687" 
d="M120 0v811h483v-79h-399v-272h362v-80h-362v-301h403v-79h-487zM338 845l-136 143h94l123 -143h-81z" />
    <glyph glyph-name="Iacute" unicode="&#xcd;" horiz-adv-x="324" 
d="M204 0h-84v811h84v-811zM341 988l-136 -143h-81l123 143h94z" />
    <glyph glyph-name="Icircumflex" unicode="&#xce;" horiz-adv-x="324" 
d="M204 0h-84v811h84v-811zM201 988l147 -143h-84l-103 88l-106 -88h-84l149 143h81z" />
    <glyph glyph-name="Idieresis" unicode="&#xcf;" horiz-adv-x="324" 
d="M204 0h-84v811h84v-811zM30 974c32 0 57 -23 57 -54c0 -32 -26 -54 -57 -54s-57 22 -57 54c0 31 25 54 57 54zM290 974c32 0 57 -23 57 -54c0 -32 -26 -54 -57 -54s-57 22 -57 54c0 31 25 54 57 54z" />
    <glyph glyph-name="Igrave" unicode="&#xcc;" horiz-adv-x="324" 
d="M204 0h-84v811h84v-811zM121 845l-136 143h94l123 -143h-81z" />
    <glyph glyph-name="Oacute" unicode="&#xd3;" horiz-adv-x="950" 
d="M890 406c0 -239 -177 -417 -415 -417s-415 178 -415 417c0 240 177 417 415 417s415 -177 415 -417zM800 406c0 207 -148 338 -325 338s-325 -131 -325 -338c0 -206 148 -338 325 -338s325 132 325 338zM642 988l-136 -143h-81l123 143h94z" />
    <glyph glyph-name="Ocircumflex" unicode="&#xd4;" horiz-adv-x="950" 
d="M890 406c0 -239 -177 -417 -415 -417s-415 178 -415 417c0 240 177 417 415 417s415 -177 415 -417zM800 406c0 207 -148 338 -325 338s-325 -131 -325 -338c0 -206 148 -338 325 -338s325 132 325 338zM513 988l147 -143h-84l-103 88l-106 -88h-84l149 143h81z" />
    <glyph glyph-name="apple" unicode="&#xf8ff;" horiz-adv-x="855" 
d="M629 161c-83 15 -145 25 -217 25c-117 0 -189 -24 -241 -99l-27 11c0 152 107 218 281 218c-73 41 -130 80 -220 144c28 52 41 79 66 129h10c155 -139 212 -181 404 -299zM398 -17c-33 5 -54 7 -76 5c41 -78 61 -155 61 -155l-62 -96h-12c-22 83 -45 146 -88 239
c4 62 35 114 72 130c43 1 92 -2 158 -16zM593 82c14 -77 34 -164 67 -249l-73 -96h-10c-17 66 -25 107 -34 153l-36 -39h-9c-33 36 -67 86 -67 98c0 41 48 139 138 149z" />
    <glyph glyph-name="Ograve" unicode="&#xd2;" horiz-adv-x="950" 
d="M890 406c0 -239 -177 -417 -415 -417s-415 178 -415 417c0 240 177 417 415 417s415 -177 415 -417zM800 406c0 207 -148 338 -325 338s-325 -131 -325 -338c0 -206 148 -338 325 -338s325 132 325 338zM436 845l-136 143h94l123 -143h-81z" />
    <glyph glyph-name="Uacute" unicode="&#xda;" horiz-adv-x="893" 
d="M447 -11c-251 0 -337 148 -337 326v496h84v-477c0 -175 73 -266 253 -266c178 0 252 91 252 266v477h84v-496c0 -178 -86 -326 -336 -326zM611 988l-136 -143h-81l123 143h94z" />
    <glyph glyph-name="Ucircumflex" unicode="&#xdb;" horiz-adv-x="893" 
d="M447 -11c-251 0 -337 148 -337 326v496h84v-477c0 -175 73 -266 253 -266c178 0 252 91 252 266v477h84v-496c0 -178 -86 -326 -336 -326zM487 988l147 -143h-84l-103 88l-106 -88h-84l149 143h81z" />
    <glyph glyph-name="Ugrave" unicode="&#xd9;" horiz-adv-x="893" 
d="M447 -11c-251 0 -337 148 -337 326v496h84v-477c0 -175 73 -266 253 -266c178 0 252 91 252 266v477h84v-496c0 -178 -86 -326 -336 -326zM408 845l-136 143h94l123 -143h-81z" />
    <glyph glyph-name="dotlessi" unicode="&#x131;" horiz-adv-x="275" 
d="M178 0h-81v543h81v-543z" />
    <glyph glyph-name="circumflex" unicode="&#x2c6;" horiz-adv-x="397" 
d="M240 811l147 -143h-84l-103 88l-106 -88h-84l149 143h81z" />
    <glyph glyph-name="tilde" unicode="&#x2dc;" horiz-adv-x="393" 
d="M273 746c26 0 42 12 46 52h64c-5 -85 -39 -121 -105 -121s-107 52 -159 52c-25 0 -40 -12 -43 -52h-66c5 83 41 121 106 121c68 0 108 -52 157 -52z" />
    <glyph glyph-name="macron" unicode="&#xaf;" horiz-adv-x="316" 
d="M306 705h-296v68h296v-68z" />
    <glyph glyph-name="breve" unicode="&#x2d8;" horiz-adv-x="351" 
d="M341 811c-7 -98 -65 -148 -166 -148c-100 0 -159 50 -165 148h63c7 -74 48 -88 102 -88c53 0 97 14 104 88h62z" />
    <glyph glyph-name="dotaccent" unicode="&#x2d9;" horiz-adv-x="134" 
d="M67 776c32 0 57 -23 57 -54c0 -32 -26 -54 -57 -54s-57 22 -57 54c0 31 25 54 57 54z" />
    <glyph glyph-name="ring" unicode="&#x2da;" horiz-adv-x="237" 
d="M119 847c60 0 108 -43 108 -103s-48 -103 -108 -103c-61 0 -109 43 -109 103s48 103 109 103zM119 804c-32 0 -61 -23 -61 -60c0 -36 29 -59 61 -59s60 23 60 59c0 37 -28 60 -60 60z" />
    <glyph glyph-name="cedilla" unicode="&#xb8;" horiz-adv-x="241" 
d="M20 -210l-4 54c15 -6 54 -16 81 -16c31 0 64 10 64 38c0 29 -33 39 -68 39c-25 0 -51 -4 -65 -7l63 103h51l-34 -57c43 3 113 -9 113 -74c0 -67 -60 -93 -120 -93c-31 0 -52 3 -81 13z" />
    <glyph glyph-name="hungarumlaut" unicode="&#x2dd;" horiz-adv-x="442" 
d="M227 811l-136 -143h-81l123 143h94zM432 811l-135 -143h-81l123 143h93z" />
    <glyph glyph-name="ogonek" unicode="&#x2db;" horiz-adv-x="206" 
d="M115 2l78 -2c-59 -28 -106 -58 -106 -95c0 -30 25 -46 65 -46c16 0 31 2 44 6v-50c-18 -5 -41 -7 -63 -7c-59 0 -123 22 -123 87c0 47 54 88 105 107z" />
    <glyph glyph-name="caron" unicode="&#x2c7;" horiz-adv-x="397" 
d="M157 668l-147 143h84l103 -88l106 88h84l-149 -143h-81z" />
    <glyph glyph-name="currency" unicode="&#xa4;" horiz-adv-x="578" 
d="M483 546l60 -60l-41 -44c26 -41 42 -85 42 -142s-16 -101 -42 -142l41 -44l-60 -60l-46 44c-38 -29 -84 -48 -148 -48s-110 19 -148 48l-46 -44l-60 60l41 44c-26 41 -42 85 -42 142s16 101 42 142l-41 44l60 60l46 -44c38 29 84 48 148 48s110 -19 148 -48zM289 130
c97 0 174 77 175 170c1 99 -75 170 -175 170s-177 -71 -175 -170c2 -93 78 -170 175 -170z" />
    <glyph glyph-name="acute.case" horiz-adv-x="277" 
d="M247 988l-136 -143h-81l123 143h94z" />
    <glyph glyph-name="circumflex.case" horiz-adv-x="437" 
d="M260 988l147 -143h-84l-103 88l-106 -88h-84l149 143h81z" />
    <glyph glyph-name="dieresis.case" horiz-adv-x="434" 
d="M87 974c32 0 57 -23 57 -54c0 -32 -26 -54 -57 -54s-57 22 -57 54c0 31 25 54 57 54zM347 974c32 0 57 -23 57 -54c0 -32 -26 -54 -57 -54s-57 22 -57 54c0 31 25 54 57 54z" />
    <glyph glyph-name="grave.case" horiz-adv-x="277" 
d="M166 845l-136 143h94l123 -143h-81z" />
    <glyph glyph-name="ring.case" horiz-adv-x="277" 
d="M139 1051c60 0 108 -43 108 -103s-48 -103 -108 -103c-61 0 -109 43 -109 103s48 103 109 103zM139 1008c-32 0 -61 -23 -61 -60c0 -36 29 -59 61 -59s60 23 60 59c0 37 -28 60 -60 60z" />
    <glyph glyph-name="tilde.case" horiz-adv-x="433" 
d="M293 924c26 0 42 12 46 52h64c-5 -85 -39 -121 -105 -121s-107 52 -159 52c-25 0 -40 -12 -43 -52h-66c5 83 41 121 106 121c68 0 108 -52 157 -52z" />
    <glyph glyph-name="cedilla.case" horiz-adv-x="265" 
d="M34 -210l-4 54c15 -6 54 -16 81 -16c31 0 64 10 64 38c0 29 -33 39 -68 39c-25 0 -51 -4 -65 -7l63 103h51l-34 -57c43 3 113 -9 113 -74c0 -67 -60 -93 -120 -93c-31 0 -52 3 -81 13z" />
    <glyph glyph-name="caron.case" horiz-adv-x="437" 
d="M177 845l-147 143h84l103 -88l106 88h84l-149 -143h-81z" />
    <glyph glyph-name="macron.case" horiz-adv-x="356" 
d="M326 885h-296v68h296v-68z" />
    <glyph glyph-name="breve.case" horiz-adv-x="391" 
d="M361 993c-7 -98 -65 -148 -166 -148c-100 0 -159 50 -165 148h63c7 -74 48 -88 102 -88c53 0 97 14 104 88h62z" />
    <glyph glyph-name="dotaccent.case" horiz-adv-x="174" 
d="M87 974c32 0 57 -23 57 -54c0 -32 -26 -54 -57 -54s-57 22 -57 54c0 31 25 54 57 54z" />
    <glyph glyph-name="hungarumlaut.case" horiz-adv-x="482" 
d="M247 988l-136 -143h-81l123 143h94zM452 988l-135 -143h-81l123 143h93z" />
    <glyph glyph-name="zero.ltn" horiz-adv-x="677" 
d="M339 69c113 0 182 90 182 265s-69 268 -182 268c-115 0 -182 -93 -182 -268s67 -265 182 -265zM339 -9c-179 0 -267 140 -267 343c0 202 88 345 267 345c178 0 265 -143 265 -345c0 -203 -87 -343 -265 -343z" />
    <glyph glyph-name="one..ltn" horiz-adv-x="363" 
d="M174 0v572l-139 -31v71l219 50v-662h-80z" />
    <glyph glyph-name="two..ltn" horiz-adv-x="568" 
d="M256 600c-68 0 -118 -22 -166 -61l-40 71c57 43 130 68 213 68c122 0 224 -66 224 -187c0 -137 -120 -257 -338 -416h353v-75h-472v74c219 161 372 286 372 404c0 81 -70 122 -146 122z" />
    <glyph glyph-name="three..ltn" horiz-adv-x="576" 
d="M248 -9c-81 0 -160 25 -218 68l40 71c48 -39 103 -61 171 -61c94 0 175 41 175 121c0 88 -75 119 -186 119h-16v75h13c118 0 173 36 173 107c0 67 -66 109 -153 109c-68 0 -120 -22 -168 -61l-39 71c57 43 132 68 214 68c131 0 230 -65 230 -174
c0 -79 -52 -138 -103 -155c62 -16 120 -69 120 -165c0 -125 -111 -193 -253 -193z" />
    <glyph glyph-name="four..ltn" horiz-adv-x="646" 
d="M395 0v169h-355v73l339 416h96v-414h119v-75h-119v-169h-80zM128 244h267v329z" />
    <glyph glyph-name="five..ltn" horiz-adv-x="629" 
d="M298 -9c-86 0 -165 25 -228 68l39 72c48 -38 114 -61 182 -61c90 0 179 44 179 140c0 101 -75 144 -174 144c-59 0 -130 -16 -190 -39l43 343h374v-75h-310l-22 -172c40 12 81 18 120 18c128 0 243 -60 243 -220c0 -141 -121 -218 -256 -218z" />
    <glyph glyph-name="six..ltn" horiz-adv-x="623" 
d="M311 -9c-136 0 -247 101 -247 239c0 73 26 131 81 205l164 223h101l-150 -199c23 7 46 11 68 11c129 0 231 -106 231 -240c0 -132 -107 -239 -248 -239zM311 69c99 0 164 74 164 163c0 88 -65 162 -164 162c-97 0 -163 -74 -163 -162c0 -89 64 -163 163 -163z" />
    <glyph glyph-name="seven..ltn" horiz-adv-x="564" 
d="M85 0l341 583h-383v75h472v-75l-334 -583h-96z" />
    <glyph glyph-name="eight..ltn" horiz-adv-x="648" 
d="M323 678c124 0 229 -64 229 -172c0 -73 -42 -130 -91 -150c48 -22 111 -73 111 -173c0 -129 -123 -192 -249 -192s-249 63 -249 192c0 100 64 151 112 173c-50 20 -91 77 -91 150c0 108 105 172 228 172zM323 319c-99 0 -164 -48 -164 -127c0 -78 70 -123 164 -123
c95 0 165 45 165 123c0 79 -65 127 -165 127zM323 600c-82 0 -145 -38 -145 -104c0 -58 50 -108 145 -108c96 0 146 50 146 108c0 66 -63 104 -146 104z" />
    <glyph glyph-name="nine..ltn" horiz-adv-x="623" 
d="M311 678c137 0 248 -101 248 -238c0 -74 -29 -129 -82 -205l-164 -235h-101l150 210c-22 -7 -45 -10 -68 -10c-130 0 -230 106 -230 240c0 131 107 238 247 238zM311 600c-98 0 -163 -74 -163 -163c0 -88 65 -162 163 -162s163 74 163 162c0 89 -64 163 -163 163z" />
    <glyph glyph-name="uni064A.ss01" horiz-adv-x="1012" 
d="M364 -125c-114 0 -176 17 -231 66c-49 44 -71 121 -71 181v241h80v-229c0 -65 19 -110 53 -137c37 -30 93 -42 153 -42h190v369c0 76 21 130 70 172c39 32 90 47 156 47h178v-543h-80v463h-97c-44 0 -75 -8 -102 -30c-27 -21 -45 -56 -45 -96v-462h-254zM333 -269
c-30 0 -55 20 -55 52c0 30 24 53 55 53s55 -23 55 -53c0 -32 -25 -52 -55 -52zM526 -269c-30 0 -55 20 -55 52c0 30 24 53 55 53c32 0 56 -23 56 -53c0 -32 -25 -52 -56 -52z" />
    <glyph glyph-name="uni064A.fina.ss01" horiz-adv-x="1047" 
d="M364 -125c-114 0 -176 17 -231 66c-49 44 -71 121 -71 181v241h80v-229c0 -65 19 -110 53 -137c37 -30 93 -42 153 -42h190v369c0 76 21 130 70 172c39 32 90 47 156 47h178v-463h125v-80h-205v463h-97c-44 0 -75 -8 -102 -30c-27 -21 -45 -56 -45 -96v-462h-254z
M333 -269c-30 0 -55 20 -55 52c0 30 24 53 55 53s55 -23 55 -53c0 -32 -25 -52 -55 -52zM526 -269c-30 0 -55 20 -55 52c0 30 24 53 55 53c32 0 56 -23 56 -53c0 -32 -25 -52 -56 -52z" />
    </font>
</defs>
</svg>
